Последнее из V.I.P.-раздела

16-Янв
16-Янв
16-Янв
16-Янв
16-Янв
16-Янв
16-Янв
16-Янв
16-Янв
16-Янв
16-Янв
16-Янв
16-Янв
15-Янв
15-Янв
15-Янв
15-Янв
15-Янв
15-Янв
15-Янв

Новости о коронавирусе

Udemy, Максим Дорофеев - Джедайские техники (а не какой-то там тайм-менеджмент) (2020)

Ответить на тему
 
Автор Сообщение

Yulya ®

Udemy, Максим Дорофеев | Джедайские техники (а не какой-то там тайм-менеджмент) (2020) WEB-DL - Автор: Максим Дорофеев
Производство: Udemy
Жанр: Личная эффективность
Описание:
Это не тайм-менеджмент, здесь не будет про матрицу Эйзенхауэра, SMART-цели, выход из зоны комфорта и про "съесть утром лягушку". Это все прекрасные методы, чтобы их объяснять аудитории у флипчарта, но в реальной жизни нам нужно кое-что другое...
Курс представляет собой краткую выжимку навыков и умений, описанных в моих книгах: "Джедайские техник" и "Путь джедая".
Однако это не пересказ книг. Курс построен в виде серии из 14 уроков, в каждом из которых содержится:
1. Видео (записанное в студии и длительностью не более 12 минут),
2. Маленькое упражнение,

Продолжение описания:

3. Новые практики (1-2 штуки), которые вы можете начать практиковать,
4. Вопросы для осмысления. Простая анкета, где после своих ответов вы можете посмотреть обезличенные ответы других людей и подумать над этим
В отличие от книги, которая описывает логику и принципы "Джедайских техник", курс помогает и показывает как и в какой последовательности запустить у себя все эти приемы, сделав их частью своего образа жизни.
Продолжительность: 02:51:05
Качество видео: WEB-DL
Видео: AVC/H.264, 1280x720, ~2012 Kbps
Аудио: AAC, 2 ch, 192 Kbps

MediaInfo:

Общее
Полное имя : [Udemy] Джедайские техники (а не какой-то там тайм-менеджмент)\6 Работа с проектами (простейшие случаи)\6 Работа с проектами (простейшие случаи).mp4
Формат : MPEG-4
Профиль формата : Base Media
Идентификатор кодека : isom (isom/iso2/avc1/mp41)
Размер файла : 160 Мбайт
Продолжительность : 10 м. 12 с.
Режим общего битрейта : Переменный
Общий поток : 2 189 Кбит/сек
Дата кодирования : UTC 2017-05-16 11:57:29
Дата пометки : UTC 2017-05-16 11:57:29
Программа кодирования : Lavf57.71.100
Видео
Идентификатор : 1
Формат : AVC
Формат/Информация : Advanced Video Codec
Профиль формата : Main@L3.1
Настройки формата : CABAC / 1 Ref Frames
Параметр CABAC формата : Да
Параметр RefFrames формата : 1 кадр
Параметр GOP формата : M=1, N=25
Идентификатор кодека : avc1
Идентификатор кодека/Информация : Advanced Video Coding
Продолжительность : 10 м. 12 с.
Вид битрейта : Постоянный
Битрейт : 2 012 Кбит/сек
Ширина : 1 280 пикселей
Высота : 720 пикселей
Соотношение сторон : 16:9
Частота кадров : 25,000 кадров/сек
Цветовое пространство : YUV
Субдискретизация насыщенности : 4:2:0
Битовая глубина : 8 бит
Тип развёртки : Прогрессивная
Бит/(Пиксели*Кадры) : 0.087
Размер потока : 145 Мбайт (91%)
Язык : English
Дата кодирования : UTC 2017-05-16 11:57:29
Дата пометки : UTC 2017-05-16 11:57:29
Codec configuration box : avcC
Аудио
Идентификатор : 2
Формат : AAC LC
Формат/Информация : Advanced Audio Codec Low Complexity
Идентификатор кодека : mp4a-40-2
Продолжительность : 10 м. 11 с.
Вид битрейта : Переменный
Битрейт : 192 Кбит/сек
Каналы : 2 канала
Channel layout : L R
Частота : 48,0 КГц
Частота кадров : 46,875 кадров/сек (1024 SPF)
Метод сжатия : С потерями
Размер потока : 13,9 Мбайт (9%)
Default : Да
Alternate group : 1
Дата кодирования : UTC 2017-05-16 11:57:29
Дата пометки : UTC 2017-05-16 11:57:29
Скриншоты:
Скачать .torrent

Для того, чтобы скачать торрент-файл

Udemy, Максим Дорофеев - Джедайские техники (а не какой-то там тайм-менеджмент) (2020)

с нашего сайта, Вам необходимо Войти на сайт под своим логином! Если у Вас ещё нет логина, тогда Вам нужно сначала Зарегистрироваться!

Как скачивать? · Что такое торрент? · Рейтинг и ограничения

Показать сообщения:    
Ответить на тему

Udemy, Максим Дорофеев - Джедайские техники (а не какой-то там тайм-менеджмент) (2020) скачать торрент (torrent), видеоуроки, тренинги, обучающее видео и видеокурсы

Текущее время: Сегодня 05:51

Часовой пояс: GMT + 4



Вы не можете начинать темы
Вы не можете отвечать на сообщения
Вы не можете редактировать свои сообщения
Вы не можете удалять свои сообщения
Вы не можете голосовать в опросах
Вы не можете прикреплять файлы к сообщениям
Вы не можете скачивать файлы