Последнее из V.I.P.-раздела

03-Дек
03-Дек
03-Дек
03-Дек
03-Дек
03-Дек
03-Дек
03-Дек
03-Дек
03-Дек
03-Дек
03-Дек
03-Дек
03-Дек
03-Дек
03-Дек
03-Дек
03-Дек
03-Дек
03-Дек

Новости о коронавирусе

Tim Bergholz - Ultimate Grenade Tutorial Hardsurface 3D Course (2015)

Ответить на тему
 
Автор Сообщение

Yulya ®

Tim Bergholz | Ultimate Grenade Tutorial Hardsurface 3D Course (2015) PCRec [En, Ru] - Автор: Tim Bergholz
Производство: Gumroad
Жанр: Создание видео
Описание:
В этом коротком видеокурсе старший 3D художник из Ubisoft Toronto расскажет вам как создать готовую модель для игры от первого лица и каким образом ее затекстурировать так, чтобы она блистала как никогда. Превратите вашу страсть в профессию и начните создавать игровые модели уже сегодня!
Продолжительность: 02:14:00
Качество видео: PCRec
Язык озвучки: Английский Русский
Видео: AVC/H.264, 1920x1080, ~1067 kbps
Аудио: AAC, 2 ch, 125 kbps
Аудио 2: MP3, 1 ch, 128 kbps (отдельным файлом)

MediaInfo:

General
Complete name : J:\[Gumroad] Ultimate Grenade Tutorial Hardsurface 3D Course [ENG-RUS]\Grenade Tutorial - Part 1 - Modeling & UV Unwrapping - 3Ds Max 2016.mp4
Format : MPEG-4
Format profile : Base Media
Codec ID : isom (isom/iso2/avc1/mp41)
File size : 753 MiB
Duration : 1 h 27 min
Overall bit rate : 1 201 kb/s
Writing application : Lavf57.2.100
Video
ID : 1
Format : AVC
Format/Info : Advanced Video Codec
Format profile : High@L4
Format settings : CABAC / 3 Ref Frames
Format settings, CABAC : Yes
Format settings, Reference fra : 3 frames
Codec ID : avc1
Codec ID/Info : Advanced Video Coding
Duration : 1 h 27 min
Bit rate : 1 067 kb/s
Width : 1 920 pixels
Height : 1 080 pixels
Display aspect ratio : 16:9
Frame rate mode : Constant
Frame rate : 30.000 FPS
Color space : YUV
Chroma subsampling : 4:2:0
Bit depth : 8 bits
Scan type : Progressive
Bits/(Pixel*Frame) : 0.017
Stream size : 669 MiB (89%)
Codec configuration box : avcC
Audio
ID : 2
Format : AAC LC
Format/Info : Advanced Audio Codec Low Complexity
Codec ID : mp4a-40-2
Duration : 1 h 27 min
Bit rate mode : Constant
Bit rate : 126 kb/s
Channel(s) : 2 channels
Channel layout : L R
Sampling rate : 44.1 kHz
Frame rate : 43.066 FPS (1024 SPF)
Compression mode : Lossy
Stream size : 78.7 MiB (10%)
Default : Yes
Alternate group : 1

Дополнительная информация:

Программное обеспечение: 3Ds Max 2016, Substance Painter

Данный видеокурс состоит из двух частей:

Часть 1 - Modeling & UV Layout - 3Ds Max 2016 - моделирование и UV-развертка в 3ds Max
Часть 2 - Baking & Texturing - Substance Painter - запекание и текстурирование в Substance Painter
Скриншоты:
Скачать .torrent

Для того, чтобы скачать торрент-файл

Tim Bergholz - Ultimate Grenade Tutorial Hardsurface 3D Course (2015)

с нашего сайта, Вам необходимо Войти на сайт под своим логином! Если у Вас ещё нет логина, тогда Вам нужно сначала Зарегистрироваться!

Как скачивать? · Что такое торрент? · Рейтинг и ограничения

Показать сообщения:    
Ответить на тему

Tim Bergholz - Ultimate Grenade Tutorial Hardsurface 3D Course (2015) скачать торрент (torrent), видеоуроки, тренинги, обучающее видео и видеокурсы

Текущее время: Сегодня 12:30

Часовой пояс: GMT + 4



Вы не можете начинать темы
Вы не можете отвечать на сообщения
Вы не можете редактировать свои сообщения
Вы не можете удалять свои сообщения
Вы не можете голосовать в опросах
Вы не можете прикреплять файлы к сообщениям
Вы не можете скачивать файлы