Последнее из V.I.P.-раздела

03-Дек
03-Дек
03-Дек
03-Дек
03-Дек
03-Дек
03-Дек
03-Дек
03-Дек
03-Дек
03-Дек
03-Дек
03-Дек
03-Дек
03-Дек
03-Дек
03-Дек
03-Дек
03-Дек
03-Дек

Новости о коронавирусе

Joshua Kinney - Map Baking Techniques for Games in 3ds Max (2014)

Ответить на тему
 
Автор Сообщение

Yulya ®

Joshua Kinney | Map Baking Techniques for Games in 3ds Max (2014) PCRec - Автор: Joshua Kinney
Производство: Digital Tutors
Жанр: Создание видео
Описание:
Видео игры сильно зависят от специализированных текстурных карт, таких как нормали, идентификационные маски, окклюзия окружения (ambient occlusion).
Вот мы, в этом курсе и обсудим различные техники выпекания текстур для игр, в 3ds Max-е. Сначала рассмотрим базовые подходы, имеющиеся в 3ds Max-е. Например, поговорим о том, зачем нужно “раздувать” (explode) меш объекты и с чего начать настройку материалов для ID маски.

Продолжение описания:

Затем, научимся как правильно настраивать проекционную решетку, которая будет собирать, с высокополигонального объекта, рельефную/детальную информацию и как выпекать эту информацию на текстурные карты. После этого, разберемся с настройкой сцены для выпечки карты окклюзии окружения (ambient occlusion). В завершении курса, поймем как избегать традиционных ошибок выпечки, типа волнистого эффекта или пробелов в карте нормалей.
Продолжительность: 01:03:00
Качество видео: PCRec
Язык озвучки: Русский
Видео: AVC/H.264, 1280x720, ~1629kbps
Аудио: AAC, 2 ch, 189kbps

MediaInfo:

General
Complete name : J:\[Digital Tutors] Map Baking Techniques for Games in 3ds Max [2014, RUS]\1. Введение и обзор проекта.mp4
Format : MPEG-4
Format profile : Base Media / Version 2
Codec ID : mp42 (isom/mp42)
File size : 12.6 MiB
Duration : 58 s 27 ms
Overall bit rate mode : Variable
Overall bit rate : 1 821 kb/s
Movie name : безымянный
Encoded date : UTC 2015-05-21 08:21:25
Tagged date : UTC 2015-05-21 08:21:25
Video
ID : 1
Format : AVC
Format/Info : Advanced Video Codec
Format profile : High@L4.1
Format settings : CABAC / 3 Ref Frames
Format settings, CABAC : Yes
Format settings, Reference fra : 3 frames
Codec ID : avc1
Codec ID/Info : Advanced Video Coding
Duration : 58 s 0 ms
Bit rate mode : Variable
Bit rate : 1 629 kb/s
Maximum bit rate : 1 966 kb/s
Width : 1 280 pixels
Height : 720 pixels
Display aspect ratio : 16:9
Frame rate mode : Constant
Frame rate : 15.000 FPS
Color space : YUV
Chroma subsampling : 4:2:0
Bit depth : 8 bits
Scan type : Progressive
Bits/(Pixel*Frame) : 0.118
Stream size : 11.3 MiB (89%)
Language : English
Encoded date : UTC 2015-05-21 08:21:25
Tagged date : UTC 2015-05-21 08:21:25
Color range : Limited
Color primaries : BT.709
Transfer characteristics : BT.709
Matrix coefficients : BT.709
Codec configuration box : avcC
Audio
ID : 2
Format : AAC LC
Format/Info : Advanced Audio Codec Low Complexity
Codec ID : mp4a-40-2
Duration : 58 s 27 ms
Bit rate mode : Variable
Bit rate : 192 kb/s
Maximum bit rate : 469 kb/s
Channel(s) : 2 channels
Channel layout : L R
Sampling rate : 44.1 kHz
Frame rate : 43.066 FPS (1024 SPF)
Compression mode : Lossy
Stream size : 1.31 MiB (10%)
Language : English
Encoded date : UTC 2015-05-21 08:21:25
Tagged date : UTC 2015-05-21 08:21:25

Дополнительная информация:

Программное обеспечение: 3ds Max
Файлы примеров: присутствуют
Скриншоты:
Скачать .torrent

Для того, чтобы скачать торрент-файл

Joshua Kinney - Map Baking Techniques for Games in 3ds Max (2014)

с нашего сайта, Вам необходимо Войти на сайт под своим логином! Если у Вас ещё нет логина, тогда Вам нужно сначала Зарегистрироваться!

Как скачивать? · Что такое торрент? · Рейтинг и ограничения

Показать сообщения:    
Ответить на тему

Joshua Kinney - Map Baking Techniques for Games in 3ds Max (2014) скачать торрент (torrent), видеоуроки, тренинги, обучающее видео и видеокурсы

Текущее время: Сегодня 12:45

Часовой пояс: GMT + 4



Вы не можете начинать темы
Вы не можете отвечать на сообщения
Вы не можете редактировать свои сообщения
Вы не можете удалять свои сообщения
Вы не можете голосовать в опросах
Вы не можете прикреплять файлы к сообщениям
Вы не можете скачивать файлы