Последнее из V.I.P.-раздела

03-Дек
03-Дек
03-Дек
03-Дек
03-Дек
03-Дек
03-Дек
03-Дек
03-Дек
03-Дек
03-Дек
03-Дек
03-Дек
03-Дек
03-Дек
03-Дек
03-Дек
03-Дек
03-Дек
03-Дек

Новости о коронавирусе

Специалист - Java. Уровень 2. Разработка клиент - серверных приложений (2020)

Ответить на тему
 
Автор Сообщение

Yulya ®

Специалист | Java. Уровень 2. Разработка клиент - серверных приложений (2020) PCRec - Автор: Специалист
Жанр: Программирование
Описание:
Цель данного курса – научиться создавать современные приложения с многоуровневой архитектурой на Java Standard Edition (Java SE) и обеспечить эффективную работу этих приложений с использованием многопоточного кода.
В ходе обучения рассматриваются архитектуры для создания Java GUI-приложений, например, Swing и JavaFX. Изучаются основы web-приложений и взаимодействие с базами данных через JDBC API. Особое внимание уделяется эффективности приложений, создание которых невозможно без многопоточного кода. Все теоретические знания детально отрабатываются на практике.

По окончании курса Вы будете уметь:

  • создавать многопоточные приложения;
  • писать код синхронизации потоков;
  • использовать пулы потоков;
  • понимать архитектуру JavaFX;
  • создавать современный интерфейс на JavaFX;
  • реализовывать многопоточность в JavaFX;
  • использовать JDBC в Java приложениях;
  • работать с основными объектами JDBC API;
  • использовать сервлеты и страницы JSP в распределённых приложениях Java;
  • создавать приложения JavaServer Faces (JSF 2.3) ;
  • разрабатывать пользовательские компоненты JSF 2.3;
  • создавать и использовать веб-сервисы.
Продолжительность: 21:19:56
Качество видео: PCRec
Видео: AVC/H.264, 1280x720, ~83,9 Kbps
Аудио: AAC, 2 ch, 56 Kbps

MediaInfo:

Общее
Полное имя : D:\nnm\[specialist] Java. Уровень 2. Разработка клиент - серверных приложений (2020)\1_1.mp4
Формат : MPEG-4
Профиль формата : Base Media
Идентификатор кодека : isom (isom/avc1)
Размер файла : 148 Мбайт
Продолжительность : 2 ч. 25 м.
Режим общего битрейта : Переменный
Общий поток : 142 Кбит/сек
Дата кодирования : UTC 2020-04-20 13:28:33
Дата пометки : UTC 2020-04-20 13:28:33
Видео
Идентификатор : 1
Формат : AVC
Формат/Информация : Advanced Video Codec
Профиль формата : High@L3.1
Настройки формата : CABAC / 4 Ref Frames
Параметр CABAC формата : Да
Параметр RefFrames формата : 4 кадра
Идентификатор кодека : avc1
Идентификатор кодека/Информация : Advanced Video Coding
Продолжительность : 2 ч. 25 м.
Битрейт : 83,9 Кбит/сек
Номинальный битрейт : 96,0 Кбит/сек
Максимальный битрейт : 15,6 Мбит/сек
Ширина : 1 280 пикселей
Высота : 720 пикселей
Соотношение сторон : 16:9
Режим частоты кадров : Постоянный
Частота кадров : 10,000 кадров/сек
Цветовое пространство : YUV
Субдискретизация насыщенности : 4:2:0
Битовая глубина : 8 бит
Тип развёртки : Прогрессивная
Бит/(Пиксели*Кадры) : 0.009
Размер потока : 87,5 Мбайт (59%)
Заголовок : 264@GPAC0.5.2-DEV-rev248-g39d5978-master
Библиотека кодирования : x264 core 146 r2538 121396c
Настройки программы : cabac=1 / ref=3 / deblock=1:0:0 / analyse=0x3:0 / me=dia / subme=1 / psy=1 / psy_rd=1.00:0.00 / mixed_ref=0 / me_range=16 / chroma_me=1 / trellis=1 / 8x8dct=1 / cqm=0 / deadzone=21,11 / fast_pskip=1 / chroma_qp_offset=0 / threads=6 / lookahead_threads=1 / sliced_threads=0 / nr=0 / decimate=1 / interlaced=0 / bluray_compat=0 / constrained_intra=0 / bframes=3 / b_pyramid=2 / b_adapt=1 / b_bias=0 / direct=3 / weightb=1 / open_gop=0 / weightp=2 / keyint=250 / keyint_min=10 / scenecut=40 / intra_refresh=0 / rc_lookahead=40 / rc=2pass / mbtree=1 / bitrate=96 / ratetol=1.0 / qcomp=0.60 / qpmin=0 / qpmax=69 / qpstep=4 / cplxblur=20.0 / qblur=0.5 / ip_ratio=1.40 / aq=1:1.00
Дата кодирования : UTC 2020-04-20 13:28:33
Дата пометки : UTC 2020-04-20 13:28:36
Codec configuration box : avcC
Аудио
Идентификатор : 2
Формат : AAC LC SBR
Формат/Информация : Advanced Audio Codec Low Complexity with Spectral Band Replication
Коммерческое название : HE-AAC
Настройки формата : Explicit
Идентификатор кодека : mp4a-40-2
Продолжительность : 2 ч. 25 м.
Вид битрейта : Переменный
Битрейт : 56,0 Кбит/сек
Максимальный битрейт : 59,8 Кбит/сек
Каналы : 2 канала
Channel layout : L R
Частота : 44,1 КГц
Частота кадров : 21,533 кадра/сек (2048 SPF)
Метод сжатия : С потерями
Размер потока : 58,4 Мбайт (39%)
Дата кодирования : UTC 2020-04-20 12:07:39
Дата пометки : UTC 2020-04-20 13:28:36
Скриншоты:
Скачать .torrent

Для того, чтобы скачать торрент-файл

Специалист - Java. Уровень 2. Разработка клиент - серверных приложений (2020)

с нашего сайта, Вам необходимо Войти на сайт под своим логином! Если у Вас ещё нет логина, тогда Вам нужно сначала Зарегистрироваться!

Как скачивать? · Что такое торрент? · Рейтинг и ограничения

Показать сообщения:    
Ответить на тему

Специалист - Java. Уровень 2. Разработка клиент - серверных приложений (2020) скачать торрент (torrent), видеоуроки, тренинги, обучающее видео и видеокурсы

Текущее время: Сегодня 10:40

Часовой пояс: GMT + 4



Вы не можете начинать темы
Вы не можете отвечать на сообщения
Вы не можете редактировать свои сообщения
Вы не можете удалять свои сообщения
Вы не можете голосовать в опросах
Вы не можете прикреплять файлы к сообщениям
Вы не можете скачивать файлы