Последнее из V.I.P.-раздела

03-Дек
03-Дек
03-Дек
03-Дек
03-Дек
03-Дек
03-Дек
03-Дек
03-Дек
03-Дек
03-Дек
03-Дек
03-Дек
03-Дек
03-Дек
03-Дек
03-Дек
03-Дек
03-Дек
03-Дек

Новости о коронавирусе

conf.python.ru - Конференция Russian Python Week (2020)

Ответить на тему
 
Автор Сообщение

Yulya ®

conf.python.ru | Конференция Russian Python Week (2020) PCRec - Автор: conf.python.ru
Жанр: Программирование
Описание:
Заявленные доклады и воркшопы:
- Использование API схем для property-based тестирования (Dmitry Dygalo (kiwi.com)
- О чём мечтают Java-роботы, глядя на Python (Паша Финкельштейн (JetBrains), Барух Садогурский (JFrog)
- Python против Go (Филипп Кулин (Дремучий лес), Александр Боргардт (IVA Cognitive / jinncrafters(opensource community)
- Dry-python functional workshop (Pablo Aguilar (Globo.com)
- Рулетка "Как продать менеджеру техническую фигню" (Левон Авакян (Wargaming), Андрей Рыжкин (AGIMA), Максим Щепелин (Booking.com), Георгий Могелашвили (Booking.com)
- Django-Driven Design vs Domain-Driven Design (Евгений Пешков (Dodo Brands)

Продолжение описание:

В этом году набор участника пополнится полезными материалами — рекомендации брошюр можно смело начинать применять на практике.
- Как ускорить код на Python
Сборник лучших практик от экспертов Wargaming в наборе участника.
- Как сделать ваш Python-код безопасным
Сборник самых популярных уязвимостей от экспертов Positive Technologies в наборе участника.
Продолжительность: 35:17:32
Качество видео: PCRec
Видео: AVC/H.264, 1920x1080, ~416 Kbps
Аудио: AAC, 2 ch, 126 Kbps

MediaInfo:

Общее
Полное имя : D:\nnm\Конференция Russian Python Week 2020\AMA- Future of Python _ Dustin Ingram (Google), Carol Willing (--).mp4
Формат : MPEG-4
Профиль формата : Base Media / Version 2
Идентификатор кодека : mp42 (isom/mp42)
Размер файла : 238 Мбайт
Продолжительность : 1 ч. 1 м.
Режим общего битрейта : Переменный
Общий поток : 545 Кбит/сек
Дата кодирования : UTC 2020-10-06 09:15:45
Дата пометки : UTC 2020-10-06 09:15:45
Видео
Идентификатор : 1
Формат : AVC
Формат/Информация : Advanced Video Codec
Профиль формата : Main@L3.1
Настройки формата : CABAC / 3 Ref Frames
Параметр CABAC формата : Да
Параметр RefFrames формата : 3 кадра
Идентификатор кодека : avc1
Идентификатор кодека/Информация : Advanced Video Coding
Продолжительность : 1 ч. 1 м.
Битрейт : 416 Кбит/сек
Ширина : 1 280 пикселей
Высота : 720 пикселей
Соотношение сторон : 16:9
Режим частоты кадров : Постоянный
Частота кадров : 30,000 кадров/сек
Стандарт вещания : NTSC
Цветовое пространство : YUV
Субдискретизация насыщенности : 4:2:0
Битовая глубина : 8 бит
Тип развёртки : Прогрессивная
Бит/(Пиксели*Кадры) : 0.015
Размер потока : 182 Мбайт (76%)
Язык : English
Дата кодирования : UTC 2020-10-06 09:15:46
Дата пометки : UTC 2020-10-06 09:15:46
Цветовой диапазон : Limited
Codec configuration box : avcC
Аудио
Идентификатор : 2
Формат : AAC LC
Формат/Информация : Advanced Audio Codec Low Complexity
Идентификатор кодека : mp4a-40-2
Продолжительность : 1 ч. 1 м.
Вид битрейта : Переменный
Битрейт : 126 Кбит/сек
Максимальный битрейт : 352 Кбит/сек
Каналы : 2 канала
Channel layout : L R
Частота : 44,1 КГц
Частота кадров : 43,066 кадра/сек (1024 SPF)
Метод сжатия : С потерями
Размер потока : 54,9 Мбайт (23%)
Язык : English
Дата кодирования : UTC 2020-10-06 09:15:46
Дата пометки : UTC 2020-10-06 09:15:46
Скриншоты:
Скачать .torrent

Для того, чтобы скачать торрент-файл

conf.python.ru - Конференция Russian Python Week (2020)

с нашего сайта, Вам необходимо Войти на сайт под своим логином! Если у Вас ещё нет логина, тогда Вам нужно сначала Зарегистрироваться!

Как скачивать? · Что такое торрент? · Рейтинг и ограничения

Показать сообщения:    
Ответить на тему

conf.python.ru - Конференция Russian Python Week (2020) скачать торрент (torrent), видеоуроки, тренинги, обучающее видео и видеокурсы

Текущее время: Сегодня 11:23

Часовой пояс: GMT + 4



Вы не можете начинать темы
Вы не можете отвечать на сообщения
Вы не можете редактировать свои сообщения
Вы не можете удалять свои сообщения
Вы не можете голосовать в опросах
Вы не можете прикреплять файлы к сообщениям
Вы не можете скачивать файлы