Последнее из V.I.P.-раздела

22-Сен
22-Сен
22-Сен
22-Сен
22-Сен
22-Сен
22-Сен
22-Сен
22-Сен
22-Сен
22-Сен
22-Сен
22-Сен
22-Сен
22-Сен
22-Сен
22-Сен
22-Сен
22-Сен
22-Сен

Новости о коронавирусе

[Udemy] Zaur Tregulov - JAVA – получи Чёрный Пояс! (2020)

Ответить на тему
 
Автор Сообщение

Yulya ®

[Udemy] Zaur Tregulov | JAVA – получи Чёрный Пояс! (2020) PCRec - Автор: Zaur Tregulov
Производство: Udemy
Жанр: Программирование, Java
Описание:
Курс идеально подходит для тех, кто уже знаком с базовыми темами языка программирования Java. А также курс несомненно заценят люди, которые являются программистами с определённым стажем. Поверьте, Вы обязательно узнаете много нового вне зависимости от уже имеющихся знаний.
Просмотрев данный курс, Вы будете себя уверенно чувствовать, проходя собеседования на вакансию Java Разработчика.
Продолжительность: 24:44:08
Качество видео: PCRec
Видео: AVC/H.264, 1280x720, ~97,6 Kbps
Аудио: AAC, 2 ch, 126 Kbps

MediaInfo:

Общее
Полное имя : [Udemy] JAVA – получи Чёрный Пояс! (2020)\1. Введение\1. Знакомство с курсом.mp4
Формат : MPEG-4
Профиль формата : Base Media / Version 2
Идентификатор кодека : mp42 (isom/mp42)
Размер файла : 11,3 Мбайт
Продолжительность : 7 м. 1 с.
Режим общего битрейта : Переменный
Общий поток : 226 Кбит/сек
Дата кодирования : UTC 2020-07-30 16:39:20
Дата пометки : UTC 2020-07-30 16:39:20
Видео
Идентификатор : 1
Формат : AVC
Формат/Информация : Advanced Video Codec
Профиль формата : Main@L3.1
Настройки формата : CABAC / 4 Ref Frames
Параметр CABAC формата : Да
Параметр RefFrames формата : 4 кадра
Идентификатор кодека : avc1
Идентификатор кодека/Информация : Advanced Video Coding
Продолжительность : 7 м. 1 с.
Битрейт : 97,6 Кбит/сек
Ширина : 1 280 пикселей
Высота : 720 пикселей
Соотношение сторон : 16:9
Режим частоты кадров : Постоянный
Частота кадров : 30,000 кадров/сек
Стандарт вещания : NTSC
Цветовое пространство : YUV
Субдискретизация насыщенности : 4:2:0
Битовая глубина : 8 бит
Тип развёртки : Прогрессивная
Бит/(Пиксели*Кадры) : 0.004
Размер потока : 4,90 Мбайт (43%)
Язык : English
Дата кодирования : UTC 2020-07-30 16:39:20
Дата пометки : UTC 2020-07-30 16:39:20
Цветовой диапазон : Limited
Основные цвета : BT.709
Характеристики трансфера : BT.709
Коэффициенты матрицы : BT.601
Codec configuration box : avcC
Аудио
Идентификатор : 2
Формат : AAC LC
Формат/Информация : Advanced Audio Codec Low Complexity
Идентификатор кодека : mp4a-40-2
Продолжительность : 7 м. 1 с.
Вид битрейта : Переменный
Битрейт : 126 Кбит/сек
Максимальный битрейт : 309 Кбит/сек
Каналы : 2 канала
Channel layout : L R
Частота : 44,1 КГц
Частота кадров : 43,066 кадра/сек (1024 SPF)
Метод сжатия : С потерями
Размер потока : 6,31 Мбайт (56%)
Язык : English
Дата кодирования : UTC 2020-07-30 16:39:20
Дата пометки : UTC 2020-07-30 16:39:20
Скриншоты:
Скачать .torrent

Для того, чтобы скачать торрент-файл

[Udemy] Zaur Tregulov - JAVA – получи Чёрный Пояс! (2020)

с нашего сайта, Вам необходимо Войти на сайт под своим логином! Если у Вас ещё нет логина, тогда Вам нужно сначала Зарегистрироваться!

Как скачивать? · Что такое торрент? · Рейтинг и ограничения

Показать сообщения:    
Ответить на тему

[Udemy] Zaur Tregulov - JAVA – получи Чёрный Пояс! (2020) скачать торрент (torrent), видеоуроки, тренинги, обучающее видео и видеокурсы

Текущее время: Сегодня 08:20

Часовой пояс: GMT + 4



Вы не можете начинать темы
Вы не можете отвечать на сообщения
Вы не можете редактировать свои сообщения
Вы не можете удалять свои сообщения
Вы не можете голосовать в опросах
Вы не можете прикреплять файлы к сообщениям
Вы не можете скачивать файлы