Последнее из V.I.P.-раздела

22-Сен
22-Сен
22-Сен
22-Сен
22-Сен
22-Сен
22-Сен
22-Сен
22-Сен
22-Сен
22-Сен
22-Сен
22-Сен
22-Сен
22-Сен
22-Сен
22-Сен
22-Сен
22-Сен
22-Сен

Новости о коронавирусе

OTUS - React.js разработчик (2020)

Ответить на тему
 
Автор Сообщение

Yulya ®

OTUS | React.js разработчик (2020) PCRec - Автор: OTUS
Жанр: Программирование
Описание:
Самый популярный JS-фреймворк для Frontend-разработки.
На курсе вы научитесь:
- продвинутым возможностям Redux, Redux-Saga, Redux-thunk;
- создавать SPA-приложения и оптимизировать их для production;
- писать чистый и лаконичный код с TypeScript;
- применять интеграционные и юнит-тесты;
- работать в GraphQL, Apollo, Relay.
Также вы узнаете, как работает под капотом Webpack и Babel, освоите паттерны функционального программирования и научитесь их применять в React.
Продолжительность: 56:41:29
Качество видео: PCRec
Видео: AVC/H.264, 1920x1080, ~281 Kbps
Аудио: AAC, 1 ch, 53,3 Kbps

MediaInfo:

Общее
Полное имя : [OTUS] React.js разработчик (2020)\2. Typescript\Вебинар.mp4
Формат : MPEG-4
Профиль формата : Base Media / Version 2
Идентификатор кодека : mp42 (isom/mp42)
Размер файла : 292 Мбайт
Продолжительность : 2 ч. 1 м.
Режим общего битрейта : Переменный
Общий поток : 336 Кбит/сек
Дата кодирования : UTC 2020-04-06 19:06:22
Дата пометки : UTC 2020-04-06 19:06:22
Видео
Идентификатор : 2
Формат : AVC
Формат/Информация : Advanced Video Codec
Профиль формата : High@L5
Настройки формата : CABAC / 11 Ref Frames
Параметр CABAC формата : Да
Параметр RefFrames формата : 11 кадров
Идентификатор кодека : avc1
Идентификатор кодека/Информация : Advanced Video Coding
Продолжительность : 2 ч. 1 м.
Битрейт : 281 Кбит/сек
Ширина : 1 920 пикселей
Высота : 1 080 пикселей
Соотношение сторон : 16:9
Режим частоты кадров : Постоянный
Частота кадров : 25,000 кадров/сек
Цветовое пространство : YUV
Субдискретизация насыщенности : 4:2:0
Битовая глубина : 8 бит
Тип развёртки : Прогрессивная
Бит/(Пиксели*Кадры) : 0.005
Размер потока : 244 Мбайт (84%)
Заголовок : H.264/AVC video
Дата кодирования : UTC 2020-04-06 19:06:22
Дата пометки : UTC 2020-04-06 19:06:22
Codec configuration box : avcC
Аудио
Идентификатор : 1
Формат : AAC LC
Формат/Информация : Advanced Audio Codec Low Complexity
Идентификатор кодека : mp4a-40-2
Продолжительность : 2 ч. 1 м.
Вид битрейта : Переменный
Битрейт : 53,3 Кбит/сек
Максимальный битрейт : 131 Кбит/сек
Каналы : 1 канал
Channel layout : C
Частота : 32,0 КГц
Частота кадров : 31,250 кадров/сек (1024 SPF)
Метод сжатия : С потерями
Размер потока : 46,3 Мбайт (16%)
Заголовок : AAC audio
Дата кодирования : UTC 2020-04-06 19:06:22
Дата пометки : UTC 2020-04-06 19:06:22
Скриншоты:
Скачать .torrent

Для того, чтобы скачать торрент-файл

OTUS - React.js разработчик (2020)

с нашего сайта, Вам необходимо Войти на сайт под своим логином! Если у Вас ещё нет логина, тогда Вам нужно сначала Зарегистрироваться!

Как скачивать? · Что такое торрент? · Рейтинг и ограничения

Показать сообщения:    
Ответить на тему

OTUS - React.js разработчик (2020) скачать торрент (torrent), видеоуроки, тренинги, обучающее видео и видеокурсы

Текущее время: Сегодня 08:53

Часовой пояс: GMT + 4



Вы не можете начинать темы
Вы не можете отвечать на сообщения
Вы не можете редактировать свои сообщения
Вы не можете удалять свои сообщения
Вы не можете голосовать в опросах
Вы не можете прикреплять файлы к сообщениям
Вы не можете скачивать файлы