Последнее из V.I.P.-раздела

22-Сен
22-Сен
22-Сен
22-Сен
22-Сен
22-Сен
22-Сен
22-Сен
22-Сен
22-Сен
22-Сен
22-Сен
22-Сен
22-Сен
22-Сен
22-Сен
22-Сен
22-Сен
22-Сен
22-Сен

Новости о коронавирусе

OTUS - Framework Laravel [Часть 1-3] (2020)

Ответить на тему
 
Автор Сообщение

Yulya ®

OTUS | Framework Laravel [Часть 1-3] (2020) PCRec - Автор: OTUS
Жанр: Программирование
Описание:
Разработчики, обладающие навыками профессиональной работы с PHP-фреймворком Laravel, — сегодня одни из самых востребованных и малочисленных специалистов в сфере IT. Этот инструмент не просто упрощает жизнь и решает проблемы, связанные с тестированием, интеграцией соц.сетей и систем оплат. Работать с ним удобно и приятно любому, кто освоит все его возможности. Поэтому мы не смогли пройти мимо и создали профессиональную программу подготовки специалистов для погружения во все особенности работы с Laravel.
Продолжительность: 43:38:20
Качество видео: PCRec
Видео: AVC/H.264, 1760x1080, ~179 Kbps
Аудио: AAC, 1 ch, 53,3 Kbps

MediaInfo:

Общее
Полное имя : [OTUS] Framework Laravel. (Часть 1-3) (2020)\2 Фронтэнд\Мои курсы — Framework Laravel - OTUS_2.mp4
Формат : MPEG-4
Профиль формата : Base Media / Version 2
Идентификатор кодека : mp42 (isom/mp42)
Размер файла : 197 Мбайт
Продолжительность : 1 ч. 57 м.
Режим общего битрейта : Переменный
Общий поток : 234 Кбит/сек
Дата кодирования : UTC 2020-02-06 19:09:50
Дата пометки : UTC 2020-02-06 19:09:50
Видео
Идентификатор : 2
Формат : AVC
Формат/Информация : Advanced Video Codec
Профиль формата : High@L5
Настройки формата : CABAC / 11 Ref Frames
Параметр CABAC формата : Да
Параметр RefFrames формата : 11 кадров
Идентификатор кодека : avc1
Идентификатор кодека/Информация : Advanced Video Coding
Продолжительность : 1 ч. 57 м.
Битрейт : 179 Кбит/сек
Ширина : 1 760 пикселей
Высота : 1 080 пикселей
Соотношение сторон : 16:10
Режим частоты кадров : Постоянный
Частота кадров : 25,000 кадров/сек
Цветовое пространство : YUV
Субдискретизация насыщенности : 4:2:0
Битовая глубина : 8 бит
Тип развёртки : Прогрессивная
Бит/(Пиксели*Кадры) : 0.004
Размер потока : 150 Мбайт (76%)
Заголовок : H.264/AVC video
Дата кодирования : UTC 2020-02-06 19:09:50
Дата пометки : UTC 2020-02-06 19:09:50
Codec configuration box : avcC
Аудио
Идентификатор : 1
Формат : AAC LC
Формат/Информация : Advanced Audio Codec Low Complexity
Идентификатор кодека : mp4a-40-2
Продолжительность : 1 ч. 57 м.
Вид битрейта : Переменный
Битрейт : 53,3 Кбит/сек
Максимальный битрейт : 129 Кбит/сек
Каналы : 1 канал
Channel layout : C
Частота : 32,0 КГц
Частота кадров : 31,250 кадров/сек (1024 SPF)
Метод сжатия : С потерями
Размер потока : 44,8 Мбайт (23%)
Заголовок : AAC audio
Дата кодирования : UTC 2020-02-06 19:09:50
Дата пометки : UTC 2020-02-06 19:09:50

Дополнительная информация:

Курс для PHP-разработчиков, которые:
✓ работают с ООП-парадигмой, но неуверенно чувствуют себя в вопросах разработки на базе фреймворков
✓ хотят сократить свое время работы над задачами
✓ имеют опыт работы с фреймворками и хотят подробнее изучить Laravel
✓ хотят улучшить свои технические скиллы и перейти на следующий профессиональный уровень
Скриншоты:
Скачать .torrent

Для того, чтобы скачать торрент-файл

OTUS - Framework Laravel [Часть 1-3] (2020)

с нашего сайта, Вам необходимо Войти на сайт под своим логином! Если у Вас ещё нет логина, тогда Вам нужно сначала Зарегистрироваться!

Как скачивать? · Что такое торрент? · Рейтинг и ограничения

Показать сообщения:    
Ответить на тему

OTUS - Framework Laravel [Часть 1-3] (2020) скачать торрент (torrent), видеоуроки, тренинги, обучающее видео и видеокурсы

Текущее время: Сегодня 07:24

Часовой пояс: GMT + 4



Вы не можете начинать темы
Вы не можете отвечать на сообщения
Вы не можете редактировать свои сообщения
Вы не можете удалять свои сообщения
Вы не можете голосовать в опросах
Вы не можете прикреплять файлы к сообщениям
Вы не можете скачивать файлы