Pluralsight.com - Blender Fundamentals (2018)

Ответить на тему
 
Автор Сообщение

Yulya ®

Pluralsight.com | Blender Fundamentals (2018) PCRec [H.264/720p-LQ] [RU/EN] - Автор (режиссер): Mark Masters
Производство: Pluralsight.com
Жанр: 3D графика
Описание:
Основы работы в Blender
Сначала мы освоим базовые, фундаментальные навыки, необходимые для общего понимания происходящего и комфортной работы в программе Blender. Затем приступим к изучению мощных возможностей моделирования в Blender и начнём построение космического дрона.
Продвигаясь всё дальше, мы углубимся в риггинг и анимацию, а также научимся использовать динамический движок программы для создания эффекта пламени. Далее реализуем освещение и визуализацию сцены (используя рендер Cycles) вместе с пост-эффектами из модуля Blender’s Compositor.
По окончании данного учебного курса вы не только поймёте смысл каждого сделанного шага в процессе 3D моделирования космического дрона, но также получите хорошее представление об основных функциях и особенностях программы Blender.
Необходимое программное обеспечение: Blender 2.79
Продолжительность: 09:22:02
Качество видео: PCRec
Перевод: Дублированный (Гоха+)
Язык озвучки: Русский, Английский
Видео: AVC/H.264, 1280x720, ~104-1674 Kbps
Аудио 1: AAC, 1 ch, 128 Kbps - Русский, дублированный (Гоха+)
Аудио 2: AAC, 2 ch, 71-96 Kbps - Английский, оригинал

MediaInfo:

General
Complete name : 01_01. Module Overview.mp4
Format : MPEG-4
Format profile : Base Media
Codec ID : isom
File size : 5.42 MiB
Duration : 2mn 18s
Overall bit rate : 328 Kbps
Video
ID : 1
Format : AVC
Format/Info : Advanced Video Codec
Format profile : High@L4.0
Format settings, CABAC : Yes
Format settings, ReFrames : 8 frames
Format settings, GOP : M=4, N=48
Codec ID : avc1
Codec ID/Info : Advanced Video Coding
Duration : 2mn 18s
Bit rate : 104 Kbps
Width : 1 280 pixels
Height : 720 pixels
Display aspect ratio : 16:9
Frame rate mode : Constant
Frame rate : 24.000 fps
Color space : YUV
Chroma subsampling : 4:2:0
Bit depth : 8 bits
Scan type : Progressive
Bits/(Pixel*Frame) : 0.005
Stream size : 1.71 MiB (32%)
Writing library : x264 core 136
Language : English
Audio #1
ID : 2
Format : AAC
Format/Info : Advanced Audio Codec
Format profile : LC
Codec ID : 40
Duration : 2mn 18s
Duration_LastFrame : 39ms
Bit rate mode : Constant
Bit rate : 128 Kbps
Channel(s) : 2 channels
Channel(s)_Original : 1 channel
Channel positions : Front: C
Sampling rate : 44.1 KHz
Compression mode : Lossy
Stream size : 2.11 MiB (39%)
Language : Russian
Audio #2
ID : 3
Format : AAC
Format/Info : Advanced Audio Codec
Format profile : LC
Codec ID : 40
Duration : 2mn 18s
Bit rate mode : Constant
Bit rate : 87.6 Kbps
Channel(s) : 2 channels
Channel positions : Front: L R
Sampling rate : 44.1 KHz
Compression mode : Lossy
Stream size : 1.45 MiB (27%)
Language : English

Дополнительная информация:

Файлы упражнений прилагаются к курсу.
Дополнительная информация на офсайте.
Как выбрать звуковую дорожку по умолчанию (ссылка).
Скриншоты:

Дополнительные скриншоты:

Скачать .torrent

Для того, чтобы скачать торрент-файл

Pluralsight.com - Blender Fundamentals (2018)

с нашего сайта, Вам необходимо Войти на сайт под своим логином! Если у Вас ещё нет логина, тогда Вам нужно сначала Зарегистрироваться!

Как скачивать? · Что такое торрент? · Рейтинг и ограничения

Показать сообщения:    
Ответить на тему

Pluralsight.com - Blender Fundamentals (2018) скачать торрент (torrent), видеоуроки, тренинги, обучающее видео и видеокурсы

Текущее время: Сегодня 07:33

Часовой пояс: GMT + 4



Вы не можете начинать темы
Вы не можете отвечать на сообщения
Вы не можете редактировать свои сообщения
Вы не можете удалять свои сообщения
Вы не можете голосовать в опросах
Вы не можете прикреплять файлы к сообщениям
Вы не можете скачивать файлы