Владимир Алексеев - Видеошкола игры на гитаре Виктора Зинчука (2004)

Ответить на тему
 
Автор Сообщение

Yulya ®

Владимир Алексеев | Видеошкола игры на гитаре Виктора Зинчука [2004] DVD9- Автор (режиссер): Владимир Алексеев
Название: Видеошкола игры на гитаре Виктора Зинчука
Год выпуска: 2004
Жанр: Обучающее видео
Описание:
Виктор Зинчук и Студия "БЕРГ САУНД" представляют Вашему вниманию первую оригинальную отечественную видеошколу игры на гитаре, призванную служить мастер-классом для всех, кто хочет научиться играть на гитаре или повысить собственный профессионализм.
Видеошкола состоит из 2-х частей и снабжена печатными нотами. В первой части Маэстро познакомит Вас с акустической и электрической гитарами, поможет Вам их настроить, научит играть медиатором, расскажет и покажет, что такое легато, баре, вибрато и принцип арпеджио. Также будут показаны аккорды и возможности импровизации. Во второй части видеошколы пойдет более подробный рассказ об основах и принципах импровизации, теппинга, звукоизвлечении правой рукой (медиаторные флажолеты, глушение), работа левой рукой (бенды, подтяжки, глиссандо) и много другого практического материала. Например, аудио-"минусы" (фонограммы, записанные без партии гитары) произведений, представленных Вам Маэстро с целью раскрытия секретов мастерства и повышения уровня Вашего исполнения в формате "караоке".
Творческой группе проекта во главе с режиссером Владимиром Алексеевым удалось найти немало оригинальных художественно-технических решений, никогда ранее не использовавшихся при создании подобных школ. В частности, "картинка" на экране разбита так, чтобы Ученик во время уроков мог крупным планом видеть игру и правой, и левой рукой, а одна из пяти камер (самая миниатюрная) закреплена на грифе гитары.
Качество видео: DVD9
Продолжительность: 02:02:42
Видеокодек: Mpeg2
Битрейт видео: ~7953 kbps
Размер кадра: 720 x 576 @ 768 x 576
Аудиокодек 1: AC3 2.0
Битрейт аудио 1: 224 kbps
Аудиокодек 2: AC3 2.0
Битрейт аудио 2: 448 kbps

MI:

Общее
Полное имя : D:\Видеошкола Зинчука\VIDEO_TS\VTS_01_1.VOB
Формат : MPEG-PS
Размер файла : 1000 Мбайт
Продолжительность : 15 м.
Режим общего битрейта : Переменный
Общий поток : 8800 Кбит/сек
Видео
Идентификатор : 224 (0xE0)
Формат : MPEG Video
Версия формата : Version 2
Профиль формата : Main@Main
Параметр BVOP формата : Да
Параметр матрицы формата : По умолчанию
Параметр GOP формата : M=3, N=15
Продолжительность : 15 м.
Вид битрейта : Переменный
Битрейт : 7953 Кбит/сек
Максимальный битрейт : 9300 Кбит/сек
Ширина : 720 пикселей
Высота : 576 пикселей
Соотношение сторон : 4:3
Частота кадров : 25,000 кадров/сек
Стандарт вещания : PAL
Цветовое пространство : YUV
Субдискретизация насыщенности : 4:2:0
Битовая глубина : 8 бит
Тип развёртки : Чересстрочная
Порядок развёртки : Нижнее поле первое
Метод сжатия : С потерями
Бит/(Пиксели*Кадры) : 0.767
Размер потока : 904 Мбайт (90%)
Аудио #1
Идентификатор : 189 (0xBD)-128 (0x80)
Формат : AC-3
Формат/Информация : Audio Coding 3
Профиль формата : Dolby Digital
Расширение режима : CM (complete main)
Параметр Endianness формата : Big
Режим смешивания : DVD-Video
Продолжительность : 15 м.
Вид битрейта : Постоянный
Битрейт : 224 Кбит/сек
Каналы : 2 канала
Расположение каналов : Front: L R
Частота : 48,0 КГц
Битовая глубина : 16 бит
Метод сжатия : С потерями
Размер потока : 25,4 Мбайт (3%)
Аудио #2
Идентификатор : 189 (0xBD)-129 (0x81)
Формат : AC-3
Формат/Информация : Audio Coding 3
Расширение режима : CM (complete main)
Параметр Endianness формата : Big
Режим смешивания : DVD-Video
Продолжительность : 15 м.
Вид битрейта : Постоянный
Битрейт : 448 Кбит/сек
Каналы : 6 каналов
Расположение каналов : Front: L C R, Side: L R, LFE
Частота : 48,0 КГц
Битовая глубина : 16 бит
Метод сжатия : С потерями
Размер потока : 50,9 Мбайт (5%)
Меню
Скриншоты:
Скачать .torrent

Для того, чтобы скачать торрент-файл

Владимир Алексеев - Видеошкола игры на гитаре Виктора Зинчука (2004)

с нашего сайта, Вам необходимо Войти на сайт под своим логином! Если у Вас ещё нет логина, тогда Вам нужно сначала Зарегистрироваться!

Как скачивать? · Что такое торрент? · Рейтинг и ограничения

Показать сообщения:    
Ответить на тему

Владимир Алексеев - Видеошкола игры на гитаре Виктора Зинчука (2004) скачать торрент (torrent), видеоуроки, тренинги, обучающее видео и видеокурсы

Текущее время: Сегодня 07:34

Часовой пояс: GMT + 4



Вы не можете начинать темы
Вы не можете отвечать на сообщения
Вы не можете редактировать свои сообщения
Вы не можете удалять свои сообщения
Вы не можете голосовать в опросах
Вы не можете прикреплять файлы к сообщениям
Вы не можете скачивать файлы