Андрей Голубев - Ремонт DVD-плееров + Бонусы (ремонт микроволновок и не только) (2013)

Ответить на тему
 
Автор Сообщение

Yulya ®

Андрей Голубев | Ремонт DVD-плееров + Бонусы (ремонт микроволновок и не только) (2013) [unpacked] - Автор (режиссер): Андрей Голубев
Производство: Россия
Жанр: Ремонт DVD-плееров, ремонтов микроволновок
Системные требования:
• операционная система Windows 2000/XP/Vista/7/8.1/10
• процессор 800 MHz
• оперативная память 512 МБ
• звуковая карта (можно встроенную в материнскую плату)
• видеокарта (можно встроенную в материнскую плату)

Формат: unpacked
Описание:
Если Вы хотите овладеть всеми секретами ремонта DVD и прочей современной техники, то данный практический видеокурс — для Вас. Более того, информация полученная из данного курса поможет Вам освоить ремонт другой бытовой электроники: портативных проигрывателей, музыкальных центров, мультимедиа-проигрывателей, BlueRay-проигрывателей, спутниковых ресиверов и микроволновых печей. Кроме того, после изучения данного видеокурса Вы сможете применить полученные знания не только в личных целях, но и организовать ремонтный бизнес. А стоит ли "париться" из-за одного DVD-плеера? Изучать там что-то, а вдруг не пригодится вовсе? Ну во-первых, пригодится однозначно! Мы живём сейчас в такую эру, где знания электроники просто необходимы если не Вам, то Вашим детям и внукам точно!
Продолжительность: ~24:00:00
Качество видео: CamRip
Видео: AVC/H.264, 800x600, ~~1812 Kbps
Аудио: AAC, 2 ch, 192 Kbps, 48.0 KHz

Содержание курса:

Раздел 1. Введение
Необходимый инструмент
Цифровой мультиметр
Современные компоненты
Раздел 2. Теория
Анатомия DVD-плеера
Сервоприводы
Моторы, узел прижима
Гибкие шлейфы
Лазерные головки
Импульсные блоки питания
MPEG-боард
Схемотехника DVD
Раздел 3. Практические уроки
Замена и ремонт гибкого шлейфа
Чистим оптику
Замена шпиндель-мотора
Зависание видео
Избирательное чтение дисков
Замена лазерных головок
Юстировка траверсы
Прочие поломки механики
Ремонт блока питания 1
Ремонт блока питания 2
Другие ремонты БП
Проблемы с управлением
Ремонт дисплея раскладушки
Холодная пайка
Учимся работать осциллографом
Ремонт MPEG-боард
Прогрессивная развёртка
Меняем прошивку
Заказываем запчасти

Бонусы:

1000 схем DVD плееров
Ссылки на полезные ресурсы
Отремонтируй дистанционку сам
Организация бизнеса
20 ремонтов микроволновок

Mediainfo:

Video
ID : 1
Format : AVC
Format/Info : Advanced Video Codec
Format profile : High@L3.1
Format settings : CABAC / 3 Ref Frames
Format settings, CABAC : Yes
Format settings, RefFrames : 3 frames
Codec ID : avc1
Codec ID/Info : Advanced Video Coding
Duration : 10 min 1 s
Source duration : 10 min 1 s
Bit rate : 1 688 kb/s
Width : 800 pixels
Height : 600 pixels
Display aspect ratio : 4:3
Frame rate mode : Variable
Frame rate : 30.000 FPS
Minimum frame rate : 30.000 FPS
Maximum frame rate : 30.030 FPS
Standard : NTSC
Color space : YUV
Chroma subsampling : 4:2:0
Bit depth : 8 bits
Scan type : Progressive
Bits/(Pixel*Frame) : 0.117
Stream size : 121 MiB (90%)
Source stream size : 121 MiB (90%)
Language : English
Encoded date : UTC 2013-02-10 08:54:49
Tagged date : UTC 2013-02-10 08:54:49
Color range : Limited
Color primaries : BT.709
Transfer characteristics : BT.709
Matrix coefficients : BT.709
mdhd_Duration : 601700
Codec configuration box : avcC
Audio
ID : 2
Format : AAC LC
Format/Info : Advanced Audio Codec Low Complexity
Codec ID : mp4a-40-2
Duration : 10 min 1 s
Source duration : 10 min 1 s
Bit rate mode : Variable
Bit rate : 192 kb/s
Maximum bit rate : 351 kb/s
Channel(s) : 2 channels
Channel layout : L R
Sampling rate : 44.1 kHz
Frame rate : 43.066 FPS (1024 SPF)
Compression mode : Lossy
Stream size : 13.6 MiB (10%)
Source stream size : 13.6 MiB (10%)
Language : English
Encoded date : UTC 2013-02-10 08:54:49
Tagged date : UTC 2013-02-10 08:54:49
mdhd_Duration : 601745
Скриншоты:

Дополнительные скриншоты:

Скачать .torrent

Для того, чтобы скачать торрент-файл

Андрей Голубев - Ремонт DVD-плееров + Бонусы (ремонт микроволновок и не только) (2013)

с нашего сайта, Вам необходимо Войти на сайт под своим логином! Если у Вас ещё нет логина, тогда Вам нужно сначала Зарегистрироваться!

Как скачивать? · Что такое торрент? · Рейтинг и ограничения

Показать сообщения:    
Ответить на тему

Андрей Голубев - Ремонт DVD-плееров + Бонусы (ремонт микроволновок и не только) (2013) скачать торрент (torrent), видеоуроки, тренинги, обучающее видео и видеокурсы

Текущее время: Сегодня 11:14

Часовой пояс: GMT + 4



Вы не можете начинать темы
Вы не можете отвечать на сообщения
Вы не можете редактировать свои сообщения
Вы не можете удалять свои сообщения
Вы не можете голосовать в опросах
Вы не можете прикреплять файлы к сообщениям
Вы не можете скачивать файлы