Алексей Меркулов - Концептуальное моделирование в Revit (2018)

Ответить на тему
 
Автор Сообщение

Yulya ®

Алексей Меркулов | Концептуальное моделирование в Revit (2018) [unpacked] - Автор (издатель): Алексей Меркулов
Жанр: Обучающее видео
Системные требования:
• Операционная система Microsoft Windows XP/Vista/7/8/10
• Процессор Pentium III 750 Мгц
• 512 Мб оперативной памяти
• Разрешение экрана 1280x720 с глубиной цвета 16 бит

Формат: unpacked
Описание:
Практический видеокурс, который научит вас создавать концептуальные модели зданий и сооружений любой сложности.
Продолжительность: 03:14:23
Качество видео: PCRec
Видео: AVC/H.264, 1920х1080, ~671 Kbps
Аудио: AAC, 2 ch, 256 Kbps

Mediainfo:

Общее
Полное имя : C:\Users\ввв\Desktop\kurs-mod-revit\content\1-vvedenie.mp4
Формат : MPEG-4
Профиль формата : Base Media / Version 2
Идентификатор кодека : mp42 (isom/mp42)
Размер файла : 18,6 Мбайт
Продолжительность : 3 м. 1 с.
Режим общего битрейта : Переменный
Общий поток : 864 Кбит/сек
Дата кодирования : UTC 2017-01-13 12:10:55
Дата пометки : UTC 2017-01-13 12:10:55
Видео
Идентификатор : 1
Формат : AVC
Формат/Информация : Advanced Video Codec
Профиль формата : Baseline@L4
Настройки формата : 3 Ref Frames
Параметр CABAC формата : Нет
Параметр RefFrames формата : 3 кадра
Идентификатор кодека : avc1
Идентификатор кодека/Информация : Advanced Video Coding
Продолжительность : 3 м. 0 с.
Битрейт : 671 Кбит/сек
Ширина : 1920 пикселей
Высота : 1080 пикселей
Соотношение сторон : 16:9
Режим частоты кадров : Постоянный
Частота кадров : 30,000 кадров/сек
Стандарт вещания : NTSC
Цветовое пространство : YUV
Субдискретизация насыщенности : 4:2:0
Битовая глубина : 8 бит
Тип развёртки : Прогрессивная
Бит/(Пиксели*Кадры) : 0.011
Размер потока : 14,5 Мбайт (78%)
Язык : English
Дата кодирования : UTC 2017-01-13 12:10:56
Дата пометки : UTC 2017-01-13 12:10:56
Цветовой диапазон : Limited
Codec configuration box : avcC
Аудио
Идентификатор : 2
Формат : AAC LC
Формат/Информация : Advanced Audio Codec Low Complexity
Идентификатор кодека : mp4a-40-2
Продолжительность : 3 м. 1 с.
Вид битрейта : Переменный
Битрейт : 192 Кбит/сек
Максимальный битрейт : 256 Кбит/сек
Каналы : 2 канала
Channel layout : L R
Частота : 44,1 КГц
Частота кадров : 43,066 кадра/сек (1024 SPF)
Метод сжатия : С потерями
Размер потока : 4,09 Мбайт (22%)
Язык : English
Дата кодирования : UTC 2017-01-13 12:10:56

Программа курса:

Видео-занятие 1. Введение. В этом уроке Алексей Меркулов расскажет о содержании и структуре курса, ваш наставник объяснит, что такое концепция и разберет рабочий пример, на котором строится весь курс.
Видео-занятие 2. Создание формы. Вы научитесь размечать и создавать сложную форму по размерам. Рассмотрите полую и объёмную геометрию.
Видео-занятие 3. Корректировка 3D-модели. Продолжите моделировать форму, научитесь искать и исправлять ошибки и неточности. Поработаете также с с привязками.
Видео-занятие 4. Кровля и подрезка витражей. Начнете назначать граням конструкции. Создадите под руководством Алексея Меркулова верхний витраж и радиальные крыши. Разбирете инструмент “подрезка” в Ревите.
Видео-занятие 5. Делаем корректировку перекрытий. Создадите перекрытия с учетом специфики трехмерной модели. Разбиретесь с инструментом быстрого копирования и редактирования профилей.
Видео-занятие 6. Стены по грани. В этом уроке создадите стены по граням формы, а также расставите внутренние стены классическим способом. Поработаете с типами стен.
Видео-занятие 7. Витраж и стеновое ограждение. Примите решение о назначении ограждения. Разбирете на практике 2 варианта: стена-витраж и стеновое ограждение. Автор курса расскажет о тонкостях связки грань-витраж, которые следует знать проектировщику!
Видео-занятие 8. Витражи без разрезки. Создадите торцевой витраж. Тип без разрезки. Начнете изучать моделинг в контексте, на примере декорирования витража.
Видео-занятие 9. Центральное стеновое ограждение. Продолжите разбирать моделинг в контексте. Поработаете с центральным цилиндрическим витражом с купольной вершиной. Создадите шахту под лифты.
Видео-занятие 10. Семейство балкон. В данном видео-уроке Алексей Меркулов покажет создание семейства балкона. Разбиретесь с нетиповыми семействами. Научитесь вставлять балкон в проект и тиражировать.
Видео-занятие 11. Навесы. Смоделируете навес. Для создания такой модели в Revit нужно уметь комбинировать различные инструменты: массивы, выдавливание, лофт и т. д. Также вам нужно научиться будет хорошо ориентироваться в рабочих плоскостях. И вы научитесь этому в 11-м уроке видеокурса «Концептуальное моделирование в Revit».
Видео-занятие 12. Витражные двери. Научитесь работать с составными частями витража (импосты, панели, разрезка и др.). Также вставите в витражи двери.
Видео-занятие 13. Балкон 2 этажа. Создадите элемент, который будет выступать в качестве ограничения балкона на втором этаже. Здесь есть масса подводных камней и нюансов в разметке, о них вам расскажет преподаватель по Revit — Алексей Меркулов.
Видео-занятие 14. Выполняем доработки, делаем визуализацию. Хотя созданная в Revit концептуальная модель и является эскизной, вы сделаете небольшую детализацию и рассмотрите настройки рендера, создание камеры и получение растрового изображения.
Видео-занятие 15. Связь с пакетом 3Ds Max. В последнем уроке вы научитесь правильно экспортировать файл 3D-вида в программу 3ds Max для последующей коммерческой визализации.
Скриншоты:
Скачать .torrent

Для того, чтобы скачать торрент-файл

Алексей Меркулов - Концептуальное моделирование в Revit (2018)

с нашего сайта, Вам необходимо Войти на сайт под своим логином! Если у Вас ещё нет логина, тогда Вам нужно сначала Зарегистрироваться!

Как скачивать? · Что такое торрент? · Рейтинг и ограничения

Показать сообщения:    
Ответить на тему

Алексей Меркулов - Концептуальное моделирование в Revit (2018) скачать торрент (torrent), видеоуроки, тренинги, обучающее видео и видеокурсы

Текущее время: Сегодня 11:05

Часовой пояс: GMT + 4



Вы не можете начинать темы
Вы не можете отвечать на сообщения
Вы не можете редактировать свои сообщения
Вы не можете удалять свои сообщения
Вы не можете голосовать в опросах
Вы не можете прикреплять файлы к сообщениям
Вы не можете скачивать файлы