Джерри Гионис - Схемы идеального света в свадебной фотографии (2009)

Ответить на тему
 
Автор Сообщение

Yulya ®

-Джерри Гионис - Схемы идеального света в свадебной фотографии (2009)- Автор (режиссер): Джерри Гионис
Жанр: Обучающее видео
Перевод: Александр Киселев
Продолжительность: 01:48:40
Качество видео: PCRec
Видеокодек: AVC (H264)
Битрейт видео: ~2 000 Kbps
Размер кадра: 852*480
Аудиокодек: AAC
Битрейт аудио: 125 Kbps
Описание:
Видео от одного лучших фотографов в мире Джерри Гиониса (http://www.jerryghionis.com/), разберем работу фотографа в боевых условиях.
+позирование
+работа с видеосветом
+работа со вспышкой
+работа со смешанным светом
+идеи для свадебных фотосессий
Великолепный материал, есил вы фотографируете love story и свадьбы.
Давайте сразу ещё напишу, что самое главное это ИДЕИ, технической стороны тут не так много, он не будет рассказывать подробно как настроить вспышку, но вас научат видеть возможности.
Я выступаю только в роли переводчика и человека, который разжёвывает материал, вы можете сами найти курсы в интернете и их изучить. После семинара вы получаете оригинал видео на английском языке, а я перевожу для вас в день события.
Вы можете посмотреть оригинал видео на KelbyTraining или послушать его с моим переводом в режиме онлайн, я выступаю в роли переводчика, в режиме онлайн всё разжевываю и отвечаю на ваши вопросы, как правило их нет, ибо я мегаподробно рассказываю.

Дополнительная информация:

General
Complete name : H:\tutorials\Александр Киселев\Схемы идеального света в свадебной фотографии\1.flv
Format : Flash Video
File size : 459 MiB
Duration : 30mn 1s
Overall bit rate : 2 139 Kbps
Tagged date : UTC 2013-08-10 17:29:12
Video
Format : AVC
Format/Info : Advanced Video Codec
Format profile : [url=mailto:High@L3.1]High@L3.1[/url]
Format settings, CABAC : Yes
Format settings, ReFrames : 4 frames
Codec ID : 7
Duration : 30mn 1s
Bit rate mode : Constant
Bit rate : 2 000 Kbps / 2 000 Kbps
Width : 852 pixels
Height : 480 pixels
Display aspect ratio : 16:9
Frame rate mode : Constant
Frame rate : 30.000 fps
Color space : YUV
Chroma subsampling : 4:2:0
Bit depth : 8 bits
Scan type : Progressive
Bits/(Pixel*Frame) : 0.163
Stream size : 430 MiB (94%)
Writing library : x264 core 136 r2350 dba1934
Encoding settings : cabac=1 / ref=1 / deblock=1:0:0 / analyse=0x3:0x113 / me=hex / subme=2 / psy=1 / psy_rd=1.00:0.00 / mixed_ref=0 / me_range=16 / chroma_me=1 / trellis=0 / 8x8dct=1 / cqm=0 / deadzone=21,11 / fast_pskip=1 / chroma_qp_offset=0 / threads=12 / lookahead_threads=3 / sliced_threads=0 / nr=0 / decimate=1 / interlaced=0 / bluray_compat=0 / constrained_intra=0 / bframes=3 / b_pyramid=2 / b_adapt=1 / b_bias=0 / direct=1 / weightb=1 / open_gop=0 / weightp=1 / keyint=250 / keyint_min=25 / scenecut=40 / intra_refresh=0 / rc_lookahead=10 / rc=cbr / mbtree=1 / bitrate=2000 / ratetol=1.0 / qcomp=0.60 / qpmin=0 / qpmax=69 / qpstep=4 / vbv_maxrate=2000 / vbv_bufsize=2000 / nal_hrd=cbr / ip_ratio=1.40 / aq=1:1.00
Audio
Format : AAC
Format/Info : Advanced Audio Codec
Format profile : LC
Codec ID : 10
Duration : 30mn 1s
Bit rate : 125 Kbps
Channel count : 2 channels
Channel positions : Front: L R
Sampling rate : 44.1 KHz
Compression mode : Lossy
Stream size : 28.5 MiB (6%)
Скриншоты:
Скачать .torrent

Для того, чтобы скачать торрент-файл

Джерри Гионис - Схемы идеального света в свадебной фотографии (2009)

с нашего сайта, Вам необходимо Войти на сайт под своим логином! Если у Вас ещё нет логина, тогда Вам нужно сначала Зарегистрироваться!

Как скачивать? · Что такое торрент? · Рейтинг и ограничения

Показать сообщения:    
Ответить на тему

Джерри Гионис - Схемы идеального света в свадебной фотографии (2009) скачать торрент (torrent), видеоуроки, тренинги, обучающее видео и видеокурсы

Текущее время: Сегодня 04:34

Часовой пояс: GMT + 4



Вы не можете начинать темы
Вы не можете отвечать на сообщения
Вы не можете редактировать свои сообщения
Вы не можете удалять свои сообщения
Вы не можете голосовать в опросах
Вы не можете прикреплять файлы к сообщениям
Вы не можете скачивать файлы