[studyfoto] Ксения Комендацкая - Photoshop для фотографов — это легко! (2013)

Ответить на тему
 
Автор Сообщение

Yulya ®

-[studyfoto] Ксения Комендацкая - Photoshop для фотографов — это легко! (2013)- Автор (режиссер): studyfoto
Жанр: Видеокурс
Курс ведёт: Ксения Комендацкая
Продолжительность: 15:21:39
Качество видео: PCRec
Видеокодек: AVC
Битрейт видео: ~15fps 98kbps
Размер кадра: 1280x720
Аудиокодек: AAC
Битрейт аудио: 44100Hz stereo 93kbps
Доп,материалы: Имеются
Описание:
Photoshop для фотографов – это легко!" - курс, который объединяет теоретические и практические знания, необходимые для качественной обработки фотографий. Наверное, больше всего порадуются любители портретной фотографии, поскольку техникам ретуши и обработки портретов уделено больше всего внимания.
Видеокурс подойдет как совсем начинающим ретушерам, так и тем, кто пытался самостоятельно освоить Photoshop, но не достиг желаемого результата.
Первые 2 видеоурока посвящены самым основам работы с инструментами программы, а затем поэтапно на практике разбирается применение полезных инструментов, методик и их сочетаний для получения отличного эффекта. Всего курс насчитывает 30 видеоуроков общей продолжительностью более 15 часов. К видеоурокам с практическими заданиями прилагаются исходные материалы (фотографии, кисти, плагины), которые были использованы в уроке.

Дополнительная информация:

Что вы получаете:
30 видеоуроков общей продолжительностью 14 часов
3 теоретических видеолекции по основам светотеневого рисунка, теории цвета, технологиям для правильной цветопередачи и калибровки монитора
Исходные фотографии, необходимые плагины и другие материалы для выполнения практических заданий к каждому видеоуроку
Программа:
Тема 1. Обзор рабочего пространства и инструментов программы Photoshop. Работа с выделениями, слоями и масками в Photoshop
Тема 2. Улучшение светотеневого рисунка фотографий в Photoshop: экспозиция, яркость/контраст, локальный контраст, работа с кривыми и уровнями, перевод в ч/б и работа с черно-белыми изображениями
Тема 3.цветокоррекция, цветовой баланс, тонирование, работа с цветовыми каналами, личные наработки приемов по цветокоррекции. Запись Экшенов и оптимизация работы в программе Photoshop.
Тема 4. Инструменты Dodge и Burn (Высветлитель и Затемнитель): усиление света, работа с объемами
Тема 5. Портретная ретушь в Photoshop. Инструменты и техники выравнивания кожи, подчеркивание выразительности глаз, губ, отбеливание зубов
Тема 6. Профессиональная обработка волос в Photoshop
Тема 7. Изменение объемов и пропорций в Photoshop: инструменты Liquify, Puppet Warp, Transform.
Тема 8. Обработка портрета "от и до": "рекламная" обработка, изоляция на белом фоне, обарботка под сток.
Тема 9. Обработка пейзажа и натюрморта: удаление лишних деталей, чистка, исправление перспективы, работа с экспозицией и цветом
Занятие 10. Рисование света в Photoshop, добавление спецэффектов при помощи фильтров и кистей. Замена фона и создание коллажей в Photoshop, имитация размытия, создание авторского водяного знака. Обработка фотографии по образцу
БОНУС! Слушателям курса дополнительно предоставляются плагины, кисти и другие дополнения для Photoshop, которые применялись в видеоуроках курса

MI

Общее
Полное имя : D:\Торренты\photographer\Тема 1 Выделения, Слои и Маски\01_photoshop1-selection.mp4
Формат : MPEG-4
Профиль формата : Base Media / Version 2
Идентификатор кодека : mp42
Размер файла : 47,2 Мбайт
Продолжительность : 33 м.
Общий поток : 194 Кбит/сек
Дата кодирования : UTC 2013-07-07 14:05:19
Дата пометки : UTC 2013-07-07 14:05:19
Видео
Идентификатор : 1
Формат : AVC
Формат/Информация : Advanced Video Codec
Профиль формата : [url=mailto:High@L3.1]High@L3.1[/url]
Параметр CABAC формата : Да
Параметр ReFrames формата : 4 кадра
Идентификатор кодека : avc1
Идентификатор кодека/Информация : Advanced Video Coding
Продолжительность : 33 м.
Продолжительность оригинала : 33 м.
Вид битрейта : Переменный
Битрейт : 98,8 Кбит/сек
Ширина : 1280 пикселей
Высота : 720 пикселей
Соотношение сторон : 16:9
Режим частоты кадров : Постоянный
Частота кадров : 15,000 кадров/сек
Цветовое пространство : YUV
Субдискретизация насыщенности : 4:2:0
Битовая глубина : 8 бит
Тип развёртки : Прогрессивная
Бит/(Пиксели*Кадры) : 0.007
Размер потока : 24,0 Мбайт (51%)
Размер потока оригинала : 24,0 Мбайт (51%)
Язык : English
Дата кодирования : UTC 2013-07-07 14:05:19
Дата пометки : UTC 2013-07-07 14:05:19
mdhd_Duration : 2037612
Основные цвета : BT.709
Характеристики трансфера : BT.709
Коэффициенты матрицы : BT.709
Аудио
Идентификатор : 2
Формат : AAC
Формат/Информация : Advanced Audio Codec
Профиль формата : LC
Идентификатор кодека : 40
Продолжительность : 33 м.
Продолжительность оригинала : 33 м.
Вид битрейта : Постоянный
Битрейт : 93,7 Кбит/сек
Каналы : 2 канала
Расположение каналов : Front: L R
Частота : 44,1 КГц
Метод сжатия : С потерями
Размер потока : 22,7 Мбайт (48%)
Размер потока оригинала : 22,7 Мбайт (48%)
Язык : English
Дата кодирования : UTC 2013-07-07 14:05:19
Дата пометки : UTC 2013-07-07 14:05:19
mdhd_Duration : 2036253
Скриншоты:
Скачать .torrent

Для того, чтобы скачать торрент-файл

[studyfoto] Ксения Комендацкая - Photoshop для фотографов — это легко! (2013)

с нашего сайта, Вам необходимо Войти на сайт под своим логином! Если у Вас ещё нет логина, тогда Вам нужно сначала Зарегистрироваться!

Как скачивать? · Что такое торрент? · Рейтинг и ограничения

Показать сообщения:    
Ответить на тему

[studyfoto] Ксения Комендацкая - Photoshop для фотографов — это легко! (2013) скачать торрент (torrent), видеоуроки, тренинги, обучающее видео и видеокурсы

Текущее время: Сегодня 13:38

Часовой пояс: GMT + 4



Вы не можете начинать темы
Вы не можете отвечать на сообщения
Вы не можете редактировать свои сообщения
Вы не можете удалять свои сообщения
Вы не можете голосовать в опросах
Вы не можете прикреплять файлы к сообщениям
Вы не можете скачивать файлы