Евгений Карташов - MASK PANEL Секрет укрощения масок + 3D Luts (2014)

Ответить на тему
 
Автор Сообщение

Yulya ®

-Евгений Карташов - MASK PANEL Секрет укрощения масок + 3D Luts (2014)- Автор (режиссер): Евгений Карташов
Жанр: Обучающее видео и мультимедийный материал
Продолжительность: 02:19:03+00:07:26
Качество видео: PCRec
Видеокодек: AVC (Н264)
Битрейт видео: ~253 Kbps и 1 347 Kbps
Размер кадра: 1280*720 и 1920*1080
Аудиокодек: AAC
Битрейт аудио: 77.6 Kbps
Описание:
Евгений Карташов рассказывает, как работать с панелью на примере и пейзажных, и портретных фотографий.
А также несколько уроков посвящены ручному созданию подобных масок, чтобы вы смогли убедиться в том, что работать с панелью гораздо быстрее и удобнее, чем без нее.
В бонусном видеоуроке вы узнаете, как с помощью 3D Lut можно работать в пространствах Lab, HSL, HSB не покидая цветового пространства RGB.

МедиаИнфо:

General
Complete name : H:\Рhotoshop\MaskPanel\MaskPanel\rs\video\01.mp4
Format : MPEG-4
Format profile : Base Media / Version 2
Codec ID : mp42
File size : 4.97 MiB
Duration : 2mn 5s
Overall bit rate mode : Variable
Overall bit rate : 332 Kbps
Movie name : 1_Install
Encoded date : UTC 2014-05-06 09:47:41
Tagged date : UTC 2014-05-06 09:47:41
Video
ID : 1
Format : AVC
Format/Info : Advanced Video Codec
Format profile : [url=mailto:Baseline@L3.1]Baseline@L3.1[/url]
Format settings, CABAC : No
Format settings, ReFrames : 3 frames
Format settings, GOP : M=1, N=50
Codec ID : avc1
Codec ID/Info : Advanced Video Coding
Duration : 2mn 5s
Bit rate : 253 Kbps
Width : 1 280 pixels
Height : 720 pixels
Display aspect ratio : 16:9
Frame rate mode : Constant
Frame rate : 10.000 fps
Color space : YUV
Chroma subsampling : 4:2:0
Bit depth : 8 bits
Scan type : Progressive
Bits/(Pixel*Frame) : 0.027
Stream size : 3.78 MiB (76%)
Language : English
Encoded date : UTC 2014-05-06 09:47:41
Tagged date : UTC 2014-05-06 09:47:41
Audio
ID : 2
Format : AAC
Format/Info : Advanced Audio Codec
Format profile : LC
Codec ID : 40
Duration : 2mn 5s
Source duration : 2mn 5s
Bit rate mode : Variable
Bit rate : 77.6 Kbps
Maximum bit rate : 284 Kbps
Channel count : 2 channels
Channel positions : Front: L R
Sampling rate : 44.1 KHz
Compression mode : Lossy
Stream size : 1.16 MiB (23%)
Source stream size : 1.16 MiB (23%)
Language : English
Encoded date : UTC 2014-05-06 09:47:41
Tagged date : UTC 2014-05-06 09:47:41
mdhd_Duration : 125341
General
Complete name : H:\Рhotoshop\MaskPanel\3D_Luts\Video.mp4
Format : MPEG-4
Format profile : Base Media / Version 2
Codec ID : mp42
File size : 76.0 MiB
Duration : 7mn 26s
Overall bit rate mode : Variable
Overall bit rate : 1 427 Kbps
Movie name : bonus
Encoded date : UTC 2014-10-19 10:09:37
Tagged date : UTC 2014-10-19 10:09:37
Video
ID : 1
Format : AVC
Format/Info : Advanced Video Codec
Format profile : [url=mailto:Baseline@L4.0]Baseline@L4.0[/url]
Format settings, CABAC : No
Format settings, ReFrames : 3 frames
Format settings, GOP : M=1, N=50
Codec ID : avc1
Codec ID/Info : Advanced Video Coding
Duration : 7mn 26s
Bit rate : 1 347 Kbps
Width : 1 920 pixels
Height : 1 080 pixels
Display aspect ratio : 16:9
Frame rate mode : Constant
Frame rate : 10.000 fps
Color space : YUV
Chroma subsampling : 4:2:0
Bit depth : 8 bits
Scan type : Progressive
Bits/(Pixel*Frame) : 0.065
Stream size : 71.7 MiB (94%)
Language : English
Encoded date : UTC 2014-10-19 10:09:37
Tagged date : UTC 2014-10-19 10:09:37
Audio
ID : 2
Format : AAC
Format/Info : Advanced Audio Codec
Format profile : LC
Codec ID : 40
Duration : 7mn 26s
Bit rate mode : Variable
Bit rate : 77.6 Kbps
Maximum bit rate : 102 Kbps
Channel count : 2 channels
Channel positions : Front: L R
Sampling rate : 44.1 KHz
Compression mode : Lossy
Stream size : 4.13 MiB (5%)
Language : English
Encoded date : UTC 2014-10-19 10:09:37
Tagged date : UTC 2014-10-19 10:09:37
Скриншоты:
Скачать .torrent

Для того, чтобы скачать торрент-файл

Евгений Карташов - MASK PANEL Секрет укрощения масок + 3D Luts (2014)

с нашего сайта, Вам необходимо Войти на сайт под своим логином! Если у Вас ещё нет логина, тогда Вам нужно сначала Зарегистрироваться!

Как скачивать? · Что такое торрент? · Рейтинг и ограничения

Yerzhan

Спасибо огромное!
Показать сообщения:    
Ответить на тему

Евгений Карташов - MASK PANEL Секрет укрощения масок + 3D Luts (2014) скачать торрент (torrent), видеоуроки, тренинги, обучающее видео и видеокурсы

Текущее время: Сегодня 00:25

Часовой пояс: GMT + 4



Вы не можете начинать темы
Вы не можете отвечать на сообщения
Вы не можете редактировать свои сообщения
Вы не можете удалять свои сообщения
Вы не можете голосовать в опросах
Вы не можете прикреплять файлы к сообщениям
Вы не можете скачивать файлы