lynda.com - Foundations of Photography: Composition / Основы фотографии: Композиция (2011)

Ответить на тему
 
Автор Сообщение

Yulya ®

-lynda.com - Foundations of Photography: Composition / Основы фотографии: Композиция (2011)- Автор (режиссер): lynda.com
Жанр: Обучающее видео
Перевод: Александр Киселев
Продолжительность: 00:09:02+00:02:48+00:12:35+00:37:02+00:41:56+00:11:04+00:33:45
Качество видео: PCRec
Видеокодек: AVC (H264)
Битрейт видео: ~~1200kbps
Размер кадра: 960x540
Аудиокодек: AAC
Битрейт аудио: 151kbps
Описание:
Композиция может сделать интересный объект безликим или обычный - прекрасным. В этом курсе фотограф и автор Ben Long исследует концепции композиции, от основ таких, как правило третей, до более продвинутых тем, как движение глаза по фотографии. Курс исследует, чем камера отличается от глаза, и представляет основы композиции, как баланс и точка обзора. Ben также проверяет важность формы, света и цвета в композиции и смотрит, как композиция может быть улучшена постпроизводственными техниками.

МедиаИнфо:

General
Complete name : ,,,,,,,,Основы фотографии КОМПОЗИЦИЯ\0-Введение\00_01-welcome.mp4
Format : MPEG-4
Format profile : Base Media
Codec ID : isom
File size : 24.5 MiB
Duration : 1mn 47s
Overall bit rate mode : Variable
Overall bit rate : 1 915 Kbps
Genre : m
Encoded date : UTC 2013-01-30 08:34:10
Tagged date : UTC 2013-01-30 08:34:10
Writing application : Lavf51.12.1
Video
ID : 1
Format : AVC
Format/Info : Advanced Video Codec
Format profile : [url=mailto:Baseline@L3.1]Baseline@L3.1[/url]
Format settings, CABAC : No
Format settings, ReFrames : 1 frame
Format settings, GOP : M=1, N=12
Codec ID : avc1
Codec ID/Info : Advanced Video Coding
Duration : 1mn 47s
Bit rate : 1 758 Kbps
Width : 960 pixels
Height : 540 pixels
Display aspect ratio : 16:9
Frame rate mode : Constant
Frame rate : 29.970 fps
Color space : YUV
Chroma subsampling : 4:2:0
Bit depth : 8 bits
Scan type : Progressive
Bits/(Pixel*Frame) : 0.113
Stream size : 22.5 MiB (92%)
Encoded date : UTC 2013-01-30 08:34:10
Tagged date : UTC 2013-01-30 08:34:10
Audio
ID : 2
Format : AAC
Format/Info : Advanced Audio Codec
Format profile : LC
Codec ID : 40
Duration : 1mn 47s
Bit rate mode : Variable
Bit rate : 152 Kbps
Channel count : 2 channels
Channel positions : Front: L R
Sampling rate : 44.1 KHz
Compression mode : Lossy
Stream size : 1.94 MiB (8%)
Encoded date : UTC 2013-01-30 08:34:10
Tagged date : UTC 2013-01-30 08:34:10
Скриншоты:
Скачать .torrent

Для того, чтобы скачать торрент-файл

lynda.com - Foundations of Photography: Composition / Основы фотографии: Композиция (2011)

с нашего сайта, Вам необходимо Войти на сайт под своим логином! Если у Вас ещё нет логина, тогда Вам нужно сначала Зарегистрироваться!

Как скачивать? · Что такое торрент? · Рейтинг и ограничения

Показать сообщения:    
Ответить на тему

lynda.com - Foundations of Photography: Composition / Основы фотографии: Композиция (2011) скачать торрент (torrent), видеоуроки, тренинги, обучающее видео и видеокурсы

Текущее время: Сегодня 13:42

Часовой пояс: GMT + 4



Вы не можете начинать темы
Вы не можете отвечать на сообщения
Вы не можете редактировать свои сообщения
Вы не можете удалять свои сообщения
Вы не можете голосовать в опросах
Вы не можете прикреплять файлы к сообщениям
Вы не можете скачивать файлы