Евгений Попов - Резервное копирование (2014)

Ответить на тему
 
Автор Сообщение

Yulya ®

-Евгений Попов - Резервное копирование (2014)- Автор (режиссер): Евгений Попов
Жанр: Обучающее видео
Продолжительность: 02:08:30+00:31:57+00:32:00
Качество видео: PCRec
Видеокодек: AVC (H264)
Битрейт видео: ~3000kbps
Размер кадра: 1280x720
Аудиокодек: AAC
Битрейт аудио: 93.4 Kbps
Описание:
Это пошаговый видеокурс, который состоит из 16-ти уроков длительностью от 3 до 15 минут каждый. Большинство уроков — это скринкасты (видео, записанное с экрана компьютера), где я показываю, что и как нужно делать, какие кнопки нажимать и почему, чтобы полностью реализовать мою систему. Также есть три видео, где я живьем показываю определенные моменты, важные для общего понимания.

МедиаИнфо

General
Complete name : H:\tutorials\Евгений Попов - Резервное копирование (2014)\Резервное копирование по методу Евгения Попова\rs\video\01.mp4
Format : MPEG-4
Format profile : Base Media / Version 2
Codec ID : mp42
File size : 64.9 MiB
Duration : 2mn 57s
Overall bit rate mode : Variable
Overall bit rate : 3 065 Kbps
Encoded date : UTC 2014-08-28 04:25:42
Tagged date : UTC 2014-08-28 04:25:46
©TIM : 00:00:00:00
©TSC : 24000
©TSZ : 1001
Video
ID : 1
Format : AVC
Format/Info : Advanced Video Codec
Format profile : [url=mailto:High@L4.0]High@L4.0[/url]
Format settings, CABAC : Yes
Format settings, ReFrames : 3 frames
Format settings, GOP : M=3, N=25
Codec ID : avc1
Codec ID/Info : Advanced Video Coding
Duration : 2mn 57s
Bit rate mode : Variable
Bit rate : 2 967 Kbps
Maximum bit rate : 3 000 Kbps
Width : 1 280 pixels
Height : 720 pixels
Display aspect ratio : 16:9
Frame rate mode : Constant
Frame rate : 23.976 fps
Standard : PAL
Color space : YUV
Chroma subsampling : 4:2:0
Bit depth : 8 bits
Scan type : Progressive
Bits/(Pixel*Frame) : 0.134
Stream size : 62.8 MiB (97%)
Language : English
Encoded date : UTC 2014-08-28 04:25:42
Tagged date : UTC 2014-08-28 04:25:42
Color primaries : BT.709
Transfer characteristics : BT.709
Matrix coefficients : BT.709
Audio
ID : 2
Format : AAC
Format/Info : Advanced Audio Codec
Format profile : LC
Codec ID : 40
Duration : 2mn 57s
Source duration : 2mn 57s
Bit rate mode : Variable
Bit rate : 93.4 Kbps
Maximum bit rate : 155 Kbps
Channel count : 2 channels
Channel positions : Front: L R
Sampling rate : 48.0 KHz
Compression mode : Lossy
Stream size : 1.98 MiB (3%)
Source stream size : 1.98 MiB (3%)
Language : English
Encoded date : UTC 2014-08-28 04:25:42
Tagged date : UTC 2014-08-28 04:25:42
Скриншоты:
Скачать .torrent

Для того, чтобы скачать торрент-файл

Евгений Попов - Резервное копирование (2014)

с нашего сайта, Вам необходимо Войти на сайт под своим логином! Если у Вас ещё нет логина, тогда Вам нужно сначала Зарегистрироваться!

Как скачивать? · Что такое торрент? · Рейтинг и ограничения

arikarm

ay

Юрий2017

Зер гуд!

Edelways

Обалденный курс! Применил его советы на практике и остался доволен! Привёл файлы в порядок и компьютер стал работать быстрее.
Показать сообщения:    
Ответить на тему

Евгений Попов - Резервное копирование (2014) скачать торрент (torrent), видеоуроки, тренинги, обучающее видео и видеокурсы

Текущее время: Сегодня 20:21

Часовой пояс: GMT + 4



Вы не можете начинать темы
Вы не можете отвечать на сообщения
Вы не можете редактировать свои сообщения
Вы не можете удалять свои сообщения
Вы не можете голосовать в опросах
Вы не можете прикреплять файлы к сообщениям
Вы не можете скачивать файлы