StudyFoto - Цифровая фотография – это легко! Начальный уровень (2013)

Ответить на тему
 
Автор Сообщение

Yulya ®

-StudyFoto - Цифровая фотография – это легко! Начальный уровень (2013)- Автор (режиссер): "studyfoto"
Жанр: Онлайн - курс
Курс ведёт: Ксения Комендацкая
Продолжительность: 22:43:24
Качество видео: PCRec
Видеокодек: AVC
Битрейт видео: ~30fps 199kbps
Размер кадра: 1280x720
Аудиокодек: AAC
Битрейт аудио: 44100Hz stereo 93kbps
Доп. материалы: Имеются
Описание:
Курс "Цифровая фотография — это легко!" Начальный уровень" охватывает все основные темы, необходимые для освоения техники съемки на зеркальный цифровой фотоаппарат. Материал структурирован поэтапно от простейших понятий фотографии (таких как выдержка, диафргма и ISO) до техник съемки в сложных условиях (ночная съемка, съемка на закате, съемка салюта и молний и т.п.).
12 занятий, охватывающих широкий спектр базовых тем для освоения цифровой фотографии с нуля
Начальный уровень курса «Цифровая фотография – это легко!» рассчитан для тех, кто только недавно взял в руки цифровой зеркальный фотоаппарат, а также для тех, кто давно пользуется зеркалкой, но так и не понял, как ей грамотно управлять. Этот курс универсален и подходит владельцам камер Canon, Nikon, Sony и других производителей.

Дополнительная информация:

Что вы получаете:
Видеозаписи 12 занятий по 90 минут каждое (теоретическая часть, анализ фотографий, разбор практических заданий)
Руководство с пошаговыми инструкциями по изучению материала и выполнению практических заданий
Полезные ссылки на дополнительные материалы
3 иллюстрированных онлайн-теста по пройденному материалу
Видеозаписи 2х мастер-классов по ночной съемке и использованию вспышки в помещении
Как проходит обучение?
Вы получаете видеозаписи "живых" занятий онлайн-курса "Цифровая фотография — это легко!", что позволит сохранить атмосферу общения с преподавателем. Запись каждого занятия состоит из теоретической части, разбора вопросов от слушателей, практического задания по пройденным темам, "разбора полетов" по ходу выполнения предыдущих заданий на примере фотографий реальных слушателей курса. Также в течение курса вам будет предложены онлайн-тесты для самоконтроля усвоения материала.
В виде бонуса в дополнение к курсу вы получаете записи 2х мастер-классов: "Осваиваем ночную съемку" и "Работа с внешней вспышкой в помещении"
Что входит в программу курса?
Курс "Цифровая фотография — это легко!" Начальный уровень" охватывает все основные темы, необходимые для освоения техники съемки на зеркальный цифровой фотоаппарат. Материал структурирован поэтапно от простейших понятий фотографии (таких как выдержка, диафргма и ISO) до техник съемки в сложных условиях (ночная съемка, съемка на закате, съемка салюта и молний и т.п.).
Весь материал курса можно условно разделить на несколько тематических блоков:
Основы экспозиции в фотографии
Настройки зеркального фотоаппарата
Основы фототехники
Работа со вспышкой
Введение в теорию света
Форматы и качество цифровых изображений
Настройки фотоаппарата и техника съемки в конкретных условиях

MI

Общее
Полное имя : D:\Торренты\kurs-fotografiya-eto-legko\Занятие 1.mp4
Формат : MPEG-4
Профиль формата : Base Media / Version 2
Идентификатор кодека : mp42
Размер файла : 167 Мбайт
Продолжительность : 1 ч. 19 м.
Общий поток : 296 Кбит/сек
Дата кодирования : UTC 2013-03-17 22:15:36
Дата пометки : UTC 2013-03-17 22:15:36
Видео
Идентификатор : 1
Формат : AVC
Формат/Информация : Advanced Video Codec
Профиль формата : [url=mailto:High@L3.1]High@L3.1[/url]
Параметр CABAC формата : Да
Параметр ReFrames формата : 4 кадра
Идентификатор кодека : avc1
Идентификатор кодека/Информация : Advanced Video Coding
Продолжительность : 1 ч. 19 м.
Продолжительность оригинала : 1 ч. 19 м.
Вид битрейта : Переменный
Битрейт : 200 Кбит/сек
Ширина : 1280 пикселей
Высота : 720 пикселей
Соотношение сторон : 16:9
Режим частоты кадров : Постоянный
Частота кадров : 30,000 кадров/сек
Стандарт вещания : NTSC
Цветовое пространство : YUV
Субдискретизация насыщенности : 4:2:0
Битовая глубина : 8 бит
Тип развёртки : Прогрессивная
Бит/(Пиксели*Кадры) : 0.007
Размер потока : 113 Мбайт (68%)
Размер потока оригинала : 113 Мбайт (68%)
Язык : English
Дата кодирования : UTC 2013-03-17 22:15:36
Дата пометки : UTC 2013-03-17 22:15:36
mdhd_Duration : 4752722
Основные цвета : BT.709
Характеристики трансфера : BT.709
Коэффициенты матрицы : BT.709
Аудио
Идентификатор : 2
Формат : AAC
Формат/Информация : Advanced Audio Codec
Профиль формата : LC
Идентификатор кодека : 40
Продолжительность : 1 ч. 19 м.
Продолжительность оригинала : 1 ч. 19 м.
Вид битрейта : Постоянный
Битрейт : 93,1 Кбит/сек
Каналы : 2 канала
Расположение каналов : Front: L R
Частота : 44,1 КГц
Метод сжатия : С потерями
Размер потока : 52,7 Мбайт (32%)
Размер потока оригинала : 52,7 Мбайт (32%)
Язык : English
Дата кодирования : UTC 2013-03-17 22:15:36
Дата пометки : UTC 2013-03-17 22:15:36
mdhd_Duration : 4750782
Скриншоты:
Скачать .torrent

Для того, чтобы скачать торрент-файл

StudyFoto - Цифровая фотография – это легко! Начальный уровень (2013)

с нашего сайта, Вам необходимо Войти на сайт под своим логином! Если у Вас ещё нет логина, тогда Вам нужно сначала Зарегистрироваться!

Как скачивать? · Что такое торрент? · Рейтинг и ограничения

Показать сообщения:    
Ответить на тему

StudyFoto - Цифровая фотография – это легко! Начальный уровень (2013) скачать торрент (torrent), видеоуроки, тренинги, обучающее видео и видеокурсы

Текущее время: Сегодня 13:42

Часовой пояс: GMT + 4



Вы не можете начинать темы
Вы не можете отвечать на сообщения
Вы не можете редактировать свои сообщения
Вы не можете удалять свои сообщения
Вы не можете голосовать в опросах
Вы не можете прикреплять файлы к сообщениям
Вы не можете скачивать файлы