Екатерина Нечипоренко - MS Excel 2013. Базовый курс (2014)

Ответить на тему
 
Автор Сообщение

Yulya ®

-Екатерина Нечипоренко - MS Excel 2013. Базовый курс (2014)- Автор (режиссер): Екатерина Нечипоренко
Жанр: Обучающие видео-уроки
Продолжительность: 03:54:10
Качество видео: PCRec
Видеокодек: AVC
Битрейт видео: ~141 - 844 kb/s
Размер кадра: 1280x720
Аудиокодек: AAC
Битрейт аудио: 158 - 254 kb/s, 2 Ch
Доп. материалы: Нет
Описание:
Главная цель курса:
Дать Вам ощущение уверенности при работе в программе, сделать так, чтобы Вы начали "чувствовать её".
В этом курсе Вы узнаете:
Как устроен интерфейс MS Excel.
Как создавать и сохранять рабочие листы.
Как управлять их содержимым, вводить и редактировать данные.
Как форматировать числа, текст и даты.
Как менять внешний вид ячеек.
Как настраивать книгу для печати.
Как использовать простейшие формулы.
И особенности копирования формул (что делает работу в программе значительно быстрее).

Содержание:

Раздел №1.
Давайте начнём:
1. Вступление
2. Как устроен этот курс
3. Знакомство с рабочей книгой Excel
4. Регистрация в SkyDrive
5. Настройка панели быстрого доступа
Раздел №2.
Основы управления книгами и листами:
6. Создание и сохранение рабочей книги
7. Как открыть рабочую книгу и сохранить её под другим именем
8. Сохранение и открытие файла из SkyDrive
9. Навигация по рабочей книге
10. Добавление и удаление листов
11. Как переименовывать, копировать и перемещать листы
12. Базовые манипуляции с файлом Excel
Раздел №3.
Добавление и редактирование данных в ячейках:
13. Ввод текста, числа и даты
14. Как ввести число в виде текста
15. Редактирование содержимого ячеек
16. Отмена и возврат действия
17. Вырезать, скопировать и вставить
18. Перетаскивание (drag'&'drop)
19. Использование маркера заполнения
20. Вставка и удаление строк, столбцов и ячеек
21. Изменение размера строк и столбцов
22. Как скрывать и показывать строки и столбцы
23. Поиск по листу
Раздел №4.
Основы работы с формулами:
24. Базовые математические операции
25. Порядок выполнения математических операций
26. Функция суммирования
27. Копирование формул и функций
28. Отображение формул на листе
Раздел №5.
Форматирование рабочего листа:
29. Выделение ячеек
30. Изменение шрифта, его размера, цвета и цвета заливки ячейки
31. Перенос текста в ячейках и объединение ячеек
32. Форматирование числовых данных
33. Выравнивание данных в ячейках
34. Работа с границами ячеек
35. Форматирование даты
36. Копирование формата одной ячейки в другую
37. Поиск и замена формата в ячейке
38. Удаление значения и очистка формата
Раздел №6.
Дополнительные возможности управление книгами и листами:
39. Навигация по рабочей книге и раскраска ярлычков листов
40. Копирование и перемещение листов
41. Одновременный просмотр нескольких книг
42. Скрытие листов
43. Одновременное изменение данных в нескольких листах
Раздел №7.
Настройка страницы для печати:
44. Печать заголовков
45. Изменение размера бумаги, ориентации страницы, отступов и масштаба
46. Колонтитулы
47. Страничный режим и режим разметки
48. Печать диапазона ячеек
49. Проверка орфографии
50. Настройка параметров печати из одного места
Раздел №8.
Математические функции:
51. Функция суммирования
52. Копирование формул и функций
53. Вычисление среднего, максимального и минимального значений
54. Мода и медиана
55. Функции подсчёта
56. Создание фиксированных ссылок
57. Использование в формулах ячеек с других листов
58. 3D ссылки
59. Присваивание имён ячейкам и диапазонам

MediaInfo:

Код:
Общее
Полное имя                               : C:\MS Excel 2013. Базовый курс - 2014\3.1. Ввод текста, числа и даты.mp4
Формат                                   : MPEG-4
Профиль формата                          : Base Media / Version 2
Идентификатор кодека                     : mp42
Размер файла                             : 7,63 Мбайт
Продолжительность                        : 3 м. 32 с.
Режим общего битрейта                    : Переменный
Общий поток                              : 301 Кбит/сек
Исполнитель                              : Skill.im
Дата кодирования                         : UTC 2014-05-01 10:39:49
Дата пометки                             : UTC 2014-05-01 10:39:49
Видео
Идентификатор                            : 1
Формат                                   : AVC
Формат/Информация                        : Advanced Video Codec
Профиль формата                          : [url=mailto:High@L3.1]High@L3.1[/url]
Параметр CABAC формата                   : Да
Параметр ReFrames формата                : 3 кадра
Параметр GOP формата                     : M=1, N=75
Идентификатор кодека                     : avc1
Идентификатор кодека/Информация          : Advanced Video Coding
Продолжительность                        : 3 м. 32 с.
Продолжительность оригинала              : 3 м. 32 с.
Битрейт                                  : 141 Кбит/сек
Ширина                                   : 1280 пикселей
Высота                                   : 720 пикселей
Соотношение сторон                       : 16:9
Режим частоты кадров                     : Переменный
Частота кадров                           : 15,000 кадров/сек
Минимальная частота кадров               : 15,000 кадров/сек
Максимальная частота кадров              : 15,008 кадров/сек
Цветовое пространство                    : YUV
Субдискретизация насыщенности            : 4:2:0
Битовая глубина                          : 8 бит
Тип развёртки                            : Прогрессивная
Бит/(Пиксели*Кадры)                      : 0.010
Размер потока                            : 3,58 Мбайт (47%)
Размер потока оригинала                  : 3,58 Мбайт (47%)
Язык                                     : English
Дата кодирования                         : UTC 2014-05-01 10:39:50
Дата пометки                             : UTC 2014-05-01 10:39:50
Основные цвета                           : BT.709
Характеристики трансфера                 : BT.709
Коэффициенты матрицы                     : BT.709
mdhd_Duration                            : 212667
Аудио
Идентификатор                            : 2
Формат                                   : AAC
Формат/Информация                        : Advanced Audio Codec
Профиль формата                          : LC
Идентификатор кодека                     : 40
Продолжительность                        : 3 м. 32 с.
Продолжительность оригинала              : 3 м. 32 с.
Вид битрейта                             : Переменный
Битрейт                                  : 158 Кбит/сек
Максимальный битрейт                     : 341 Кбит/сек
Каналы                                   : 2 канала
Расположение каналов                     : Front: L R
Частота                                  : 44,1 КГц
Метод сжатия                             : С потерями
Размер потока                            : 4,00 Мбайт (52%)
Размер потока оригинала                  : 4,00 Мбайт (52%)
Язык                                     : English
Дата кодирования                         : UTC 2014-05-01 10:39:50
Дата пометки                             : UTC 2014-05-01 10:39:50
mdhd_Duration                            : 212672
Код:
Общее
Полное имя                               : C:\MS Excel 2013. Базовый курс - 2014\7.4. Страничный режим и режим разметки.mp4
Формат                                   : MPEG-4
Профиль формата                          : Base Media / Version 2
Идентификатор кодека                     : mp42
Размер файла                             : 44,7 Мбайт
Продолжительность                        : 6 м. 13 с.
Режим общего битрейта                    : Переменный
Общий поток                              : 1004 Кбит/сек
Исполнитель                              : Skill.im
Дата кодирования                         : UTC 2014-05-01 11:55:35
Дата пометки                             : UTC 2014-05-01 11:55:35
Видео
Идентификатор                            : 1
Формат                                   : AVC
Формат/Информация                        : Advanced Video Codec
Профиль формата                          : [url=mailto:High@L3.1]High@L3.1[/url]
Параметр CABAC формата                   : Да
Параметр ReFrames формата                : 3 кадра
Параметр GOP формата                     : M=1, N=75
Идентификатор кодека                     : avc1
Идентификатор кодека/Информация          : Advanced Video Coding
Продолжительность                        : 6 м. 13 с.
Продолжительность оригинала              : 6 м. 13 с.
Битрейт                                  : 844 Кбит/сек
Ширина                                   : 1280 пикселей
Высота                                   : 720 пикселей
Соотношение сторон                       : 16:9
Режим частоты кадров                     : Переменный
Частота кадров                           : 15,000 кадров/сек
Минимальная частота кадров               : 15,000 кадров/сек
Максимальная частота кадров              : 15,008 кадров/сек
Цветовое пространство                    : YUV
Субдискретизация насыщенности            : 4:2:0
Битовая глубина                          : 8 бит
Тип развёртки                            : Прогрессивная
Бит/(Пиксели*Кадры)                      : 0.061
Размер потока                            : 37,6 Мбайт (84%)
Размер потока оригинала                  : 37,6 Мбайт (84%)
Язык                                     : English
Дата кодирования                         : UTC 2014-05-01 11:55:36
Дата пометки                             : UTC 2014-05-01 11:55:36
Основные цвета                           : BT.709
Характеристики трансфера                 : BT.709
Коэффициенты матрицы                     : BT.709
mdhd_Duration                            : 373667
Аудио
Идентификатор                            : 2
Формат                                   : AAC
Формат/Информация                        : Advanced Audio Codec
Профиль формата                          : LC
Идентификатор кодека                     : 40
Продолжительность                        : 6 м. 13 с.
Продолжительность оригинала              : 6 м. 13 с.
Вид битрейта                             : Переменный
Битрейт                                  : 158 Кбит/сек
Максимальный битрейт                     : 345 Кбит/сек
Каналы                                   : 2 канала
Расположение каналов                     : Front: L R
Частота                                  : 44,1 КГц
Метод сжатия                             : С потерями
Размер потока                            : 7,02 Мбайт (16%)
Размер потока оригинала                  : 7,02 Мбайт (16%)
Язык                                     : English
Дата кодирования                         : UTC 2014-05-01 11:55:36
Дата пометки                             : UTC 2014-05-01 11:55:36
mdhd_Duration                            : 373679
Скриншоты:
Скачать .torrent

Для того, чтобы скачать торрент-файл

Екатерина Нечипоренко - MS Excel 2013. Базовый курс (2014)

с нашего сайта, Вам необходимо Войти на сайт под своим логином! Если у Вас ещё нет логина, тогда Вам нужно сначала Зарегистрироваться!

Как скачивать? · Что такое торрент? · Рейтинг и ограничения

Показать сообщения:    
Ответить на тему

Екатерина Нечипоренко - MS Excel 2013. Базовый курс (2014) скачать торрент (torrent), видеоуроки, тренинги, обучающее видео и видеокурсы

Текущее время: Сегодня 06:45

Часовой пояс: GMT + 4



Вы не можете начинать темы
Вы не можете отвечать на сообщения
Вы не можете редактировать свои сообщения
Вы не можете удалять свои сообщения
Вы не можете голосовать в опросах
Вы не можете прикреплять файлы к сообщениям
Вы не можете скачивать файлы