Иван Никитин - Фотошоп для дизайнера и визуализатора 3.0 (2014)

Ответить на тему
 
Автор Сообщение

Yulya ®

-Иван Никитин - Фотошоп для дизайнера и визуализатора 3.0 (2014)- Автор (режиссер): Иван Никитин
Жанр: Видеокурс
Продолжительность: 05:33:15
Качество видео: PCRec
Видеокодек: AVC
Битрейт видео: ~30fps 306kbps
Размер кадра: 1280x720
Аудиокодек: AAC
Битрейт аудио: 44100Hz stereo 93kbps
Доп. материалы: Имеются
Описание:
Ваши рендеры Вам не нравятся?
Заказчик отказывается принимать работу?
Вы тратите на проект визуализации неделю вместо 2 дней?
А Вы знаете что -
80% заказчиков принимают работу сразу, просто по эффектным картинкам?
Что же отличает настоящего профессионала, востребованного исполнителя, которого
НЕ ДИНАМЯТ клиенты, который способен делать работы БЫСТРЕЕ И КАЧЕСТВЕННЕЕ конкурентов, работы которого клиенты принимают СРАЗУ?
Если вы хотите уже сейчас получить все преимущества работы в фотошоп, и сделать свои проекты желанными для клиентов, реалистичными, красивыми и эффектными…
… я готов поделиться с вами своей формулой работы в фотошоп. И совсем скоро я раскрою все секреты на специальном курсе “Фотошоп для дизайнера и визуализатора 3.0”

Дополнительная информация:

В этом ПОДРОБНОМ И самое главное РЕЗУЛЬТАТИВНОМ курсе мы разберем огромное количество техник и приемов. Вот некоторые из них.
Все важнейшие инструменты обработки и коррекции изображений
Порядок обработки разных вариантов рендеров — для интерьеров и для экстерьеров, под разные настроения.
Как создать с нуля текстуру из фото, а также составные текстуры для 3д макс
Как перекрасить текстуры в любой цвет без потери качества
И как сделать текстуры для бампа, дисплейса, рефлект и рефракт карт 3дмакс
Как использовать различные шаблоны, кисти и фильтры чтобы сделать проект еще более эффектным и реалистичным
И даже как поменять освещение в вашем проекте, или вовсе сделать ночной интерьер из дневного! Прямо в фотошоп буквально за несколько минут!
И как сделать всю полиграфию для вашего бизнеса — от альбомов и коллажей проекта, до визиток, каталогов, подписи на работах и многое другое.
Программа курса

1. Скачивание и установка программы
2. Разбор интерфейса и его элементов
3. Инструменты

-Кисти
-Слои
-Выделение и перемещение
-Маски
-Текст
-Bucket, Gradient — инструменты заливки и градиентов
-Blur — кисти размытия и резкости
-Crop (инструмент обрезки и кадрирования)
-Stamp — инструмент клонирования
-Dodge, Burn, Sponge — кисти осветления, затемнения и насыщенности
-Content Aware — группа инструментов для автоматической достройки изображения и удаления ненужных объектов
-Панель корректировки изображения (Adjustments) — очень важный и большой раздел, основа обработки изображений и текстур
4. Обработка изображений. Эффективная схема обработки разных изображений. Принципы, понимание как улучшить любой проект
-Цветокоррекция
-Работа со схемами освещения в Photoshop
-Создание ночного вида прямо в Photoshop
-Смена фона за окном
-Подстановка заднего плана в проекте экстерьера
-Удаление лишних деталей и предметов с изображения
-Эффекты бликов и «звездочек» от светильников
-Использование канала Z-Depth для размытия ближнего или дальнего плана
-Разбор различных схем обработки изображений на примере нескольких проектов
-Фильтры размытия новых версий Photoshop
-Фильтры резкости, удаления зернистости и пятен
-Художественные фильтры
-Фильтры для исправления искажений перспективы
-Фильтры свечения
5. Полиграфия
-Необходимые дополнительные инструменты по разметке изображения и раобте со слоями и масками
-Порядок создания макета для обложки проекта
-Наполнение внутреннего листа проекта
-Создание коллажей
-Понимание, как создавать любую полиграфию

MI

Общее
Полное имя : D:\Торренты\Фотошоп для дизайнера и визуализатора 3.0\Bonus_brushes\Bonus_brushes\как установить кисти в фотошоп.mp4
Формат : MPEG-4
Профиль формата : Base Media / Version 2
Идентификатор кодека : mp42
Размер файла : 2,71 Мбайт
Продолжительность : 56 с.
Режим общего битрейта : Переменный
Общий поток : 403 Кбит/сек
Дата кодирования : UTC 2014-08-04 11:50:42
Дата пометки : UTC 2014-08-04 11:50:42
Видео
Идентификатор : 1
Формат : AVC
Формат/Информация : Advanced Video Codec
Профиль формата : [url=mailto:High@L3.1]High@L3.1[/url]
Параметр CABAC формата : Да
Параметр ReFrames формата : 3 кадра
Идентификатор кодека : avc1
Идентификатор кодека/Информация : Advanced Video Coding
Продолжительность : 56 с.
Продолжительность оригинала : 56 с.
Вид битрейта : Переменный
Битрейт : 306 Кбит/сек
Ширина : 1280 пикселей
Высота : 720 пикселей
Соотношение сторон : 16:9
Режим частоты кадров : Переменный
Частота кадров : 30,000 кадров/сек
Минимальная частота кадров : 30,000 кадров/сек
Максимальная частота кадров : 30,030 кадров/сек
Стандарт вещания : NTSC
Цветовое пространство : YUV
Субдискретизация насыщенности : 4:2:0
Битовая глубина : 8 бит
Тип развёртки : Прогрессивная
Бит/(Пиксели*Кадры) : 0.011
Размер потока : 2,06 Мбайт (76%)
Размер потока оригинала : 2,06 Мбайт (76%)
Язык : English
Дата кодирования : UTC 2014-08-04 11:50:42
Дата пометки : UTC 2014-08-04 11:50:42
mdhd_Duration : 56467
Основные цвета : BT.709
Характеристики трансфера : BT.709
Коэффициенты матрицы : BT.709
Аудио
Идентификатор : 2
Формат : AAC
Формат/Информация : Advanced Audio Codec
Профиль формата : LC
Идентификатор кодека : 40
Продолжительность : 56 с.
Продолжительность оригинала : 56 с.
Вид битрейта : Переменный
Битрейт : 93,6 Кбит/сек
Максимальный битрейт : 142 Кбит/сек
Каналы : 2 канала
Расположение каналов : Front: L R
Частота : 44,1 КГц
Метод сжатия : С потерями
Размер потока : 646 Кбайт (23%)
Размер потока оригинала : 646 Кбайт (23%)
Язык : English
Дата кодирования : UTC 2014-08-04 11:50:42
Дата пометки : UTC 2014-08-04 11:50:42
mdhd_Duration : 56494
Скриншоты:
Скачать .torrent

Для того, чтобы скачать торрент-файл

Иван Никитин - Фотошоп для дизайнера и визуализатора 3.0 (2014)

с нашего сайта, Вам необходимо Войти на сайт под своим логином! Если у Вас ещё нет логина, тогда Вам нужно сначала Зарегистрироваться!

Как скачивать? · Что такое торрент? · Рейтинг и ограничения

Показать сообщения:    
Ответить на тему

Иван Никитин - Фотошоп для дизайнера и визуализатора 3.0 (2014) скачать торрент (torrent), видеоуроки, тренинги, обучающее видео и видеокурсы

Текущее время: Сегодня 13:07

Часовой пояс: GMT + 4



Вы не можете начинать темы
Вы не можете отвечать на сообщения
Вы не можете редактировать свои сообщения
Вы не можете удалять свои сообщения
Вы не можете голосовать в опросах
Вы не можете прикреплять файлы к сообщениям
Вы не можете скачивать файлы