Последнее из V.I.P.-раздела

25-Сен
25-Сен
25-Сен
25-Сен
25-Сен
25-Сен
25-Сен
25-Сен
25-Сен
25-Сен
25-Сен
25-Сен
25-Сен
25-Сен
25-Сен
25-Сен
25-Сен
25-Сен
25-Сен
25-Сен

Новости о коронавирусе

Александр Шевчук - C# Стартовый (2013)

Ответить на тему
 
Автор Сообщение

Yulya ®

-Александр Шевчук - C# Стартовый (2013)- Автор (режиссер): Александр Шевчук
Название: C# Стартовый
Год выпуска: 2013
Жанр: Видео курс
Продолжительность: 16:03:00
Доп. материалы: Присутствуют
Качество видео: PCRec
Видеокодек: AVC, XVID
Битрейт видео: 1 481 Kbps, ~300-450 Kbps
Размер кадра: 1280x720, 1920x1080
Аудиокодек: MPEG, AAC
Битрейт аудио: 2ch 44.1 KHz, 192 Kbps 2ch 48.0 KHz
Описание:
Видео курс C# для начинающих – уникальный курс для новичков, который позволит Вам начать изучение языка программирования C#, не имея специальной предварительной подготовки. Все, что Вам нужно для того, чтобы успешно освоить данный курс – это базовые навыки работы с персональным компьютером. Вы сможете изучить современный язык программирования у себя дома с помощью наших видео уроков и учебных материалов под четкие и понятные инструкции опытного тренера. Пройдя видео уроки по программированию на языке C#, Вы не только получите базовые навыки, но и сможете продолжить развиваться как разработчик платформы .NET. Со временем Вы сможете разрабатывать самые разнообразные приложения, начиная от оконных приложений и заканчивая высокопрофессиональными сайтами и корпоративными программными продуктами. Если Ваша цель освоить профессию программиста, этот курс – отправная точка.

Уроки курса:

Урок 1. Знакомство с языком C#
Описание: В данном видео уроке курса "C# стартовый" Вы сможете ознакомиться историей языка C# и платформы .NET. Вы изучите инструменты, которые будете использовать на протяжении всего курса. Этот урок даст Вам общее понимание того, что такое программирование, какие типы программ можно создать с использованием языка C#. Вы узнаете об актуальных технологиях и возможностях платформы Microsoft .NET. На этом уроке Вы создадите первое приложение “Hello world”, которое пишут все программисты, когда начинают осваивать новый язык программирования. Также научитесь создавать простые оконные приложения с пользовательским интерфейсом, узнаете что такое компиляция и отладка.
Урок 2. Машинная математика и системы исчисления
Описание: Этот видео урок поможет Вам разобраться с двоичной и шестнадцатеричной системами исчисления. Познакомит Вас с алгоритмами преобразования десятичных чисел в двоичную, шестнадцатиричную системы и обратно. Разобравший, Вы сумеете лучше понять устройство компьютера и будете подготовлены к следующей теме – переменные и типы данных. Вы узнаете, какие простые типы данных есть в языке C# и какой тип данных следует использовать в конкретной ситуации.
Урок 3. Переменные и типы данных
Описание: Этот видео урок показывает, как правильно использовать типы данных при определении переменных. Также на уроке Вы узнаете о константах и как константы используются в приложениях. Так как с основными принципами создания переменных Вы ознакомились на прошлом уроке, в этом уроке больший акцент будет сделан на различные операции, которые можно производить над переменными, а также принципы форматирования строковых переменных.
Урок 4. Условные конструкции
Описание: Ни одно приложение не выполняется линейно. Всегда есть различные условия, которые могут повлиять на результат работы приложения. На этом уроке Вы изучите условные операторы, позволяющие разрабатывать алгоритмы, в которых от выбора пользователя или от других условий будет зависеть результат. В этом уроке будут рассмотрены такие условные конструкции языка C# - if/else, switch, тернарный оператор.
Урок 5. Логические операции
Описание: На этом уроке Вы изучите основы логики и рассмотрите операторы языка C#, которые будут необходимы при разработке программного обеспечения. В этот урок входят примеры использования логических и побитовых операций. Вы рассмотрите конъюнкцию, дизъюнкцию, исключающее «или», отрицание, операторы сдвига и многое другое. На этом уроке Вы получите не просто теорию, а еще и узнаете, в каких ситуациях могут быть применены данные конструкции.
Урок 6. Циклические конструкции
Описание: Циклические конструкции – то, без чего не обойдется ни одно приложение. В программировании часто встречаются действия, которые необходимо повторить несколько раз. Вряд ли Вы захотите повторять в коде несколько сотен раз одинаковые операции. Для решения задач, которые требуют неоднократного повторения операций, Вам необходимо разобраться с конструкциями, которые будут изучены в этом уроке. Вы узнаете, какие циклы бывают в языке C#, научитесь их запускать и контролировать.
Урок 7. Методы
Описание: Чтобы научится программировать, мало изучить условные и циклические конструкции. Необходимо использовать еще и другие возможности языка C#. В этом уроке Вы рассмотрите очень важный элемент любого приложения – метод. Вы научитесь создавать методы, узнаете, что такое параметры, возвращаемые типы, сможете различать функции и процедуры. Вы изучите весь необходимый материал, чтобы начать дальнейшее освоение более сложных тем, связанных с объектно-ориентированными техниками в программировании.
Урок 8. Методы. Рекурсия
Описание: На этом уроке Вы расширите знания, полученные на предыдущем занятии по методам. Вы узнаете, что такое рекурсия и сложная рекурсия. Рассмотрите новые возможности языка C#, связанные с использованием методов – именованные и опциональные параметры. На этом уроке Вы закрепите свои знания и научитесь пользоваться более сложными техниками программирования.
Урок 9. Массивы
Описание: Задача большинства приложений сводится к анализу данных и вычислениям, производимым над большими объемами данных. Для того, чтобы в Вашем приложении появилась возможность хранить большое количество однотипных значений, Вам необходимо создать массив. Видео урок обучит Вас не только создавать массивы, но и производить основные операции над массивами. Вы узнаете, как можно использовать циклы при работе с массивами, а также изучите различные типы массивов – одномерные, многомерные, зубчатые.

Урок 1. Знакомство с языком C#.mkv

General
Format : Matroska
Format version : Version 1
File size : 1.12 GiB
Duration : 1h 43mn
Overall bit rate : 1 542 Kbps
Encoded date : UTC 2014-06-07 13:48:48
Writing application : ismdownloader v2.0.0.0
Writing library : ismdownloader v2.0.0.0
Video
ID : 1
Format : AVC
Format/Info : Advanced Video Codec
Format profile : [url=mailto:Main@L5.0]Main@L5.0[/url]
Format settings, CABAC : Yes
Format settings, ReFrames : 4 frames
Format settings, GOP : M=3, N=30
Codec ID : V_MPEG4/ISO/AVC
Duration : 1h 43mn
Bit rate mode : Constant
Nominal bit rate : 1 481 Kbps
Width : 1 280 pixels
Height : 720 pixels
Display aspect ratio : 16:9
Frame rate mode : Constant
Frame rate : 15.000 fps
Standard : NTSC
Color space : YUV
Chroma subsampling : 4:2:0
Bit depth : 8 bits
Scan type : Progressive
Bits/(Pixel*Frame) : 0.107
Title : video
Language : English
Default : Yes
Forced : No
Audio
ID : 2
Format : AAC
Format/Info : Advanced Audio Codec
Format profile : LC
Codec ID : A_AAC
Duration : 1h 43mn
Channel(s) : 2 channels
Channel positions : Front: L R
Sampling rate : 44.1 KHz
Compression mode : Lossy
Title : audio
Language : English
Default : Yes
Forced : No

Урок 2. Машинная математика и системы исчисления.mkv

General
Format : Matroska
Format version : Version 1
File size : 1.08 GiB
Duration : 1h 40mn
Overall bit rate : 1 542 Kbps
Encoded date : UTC 2014-06-07 15:43:43
Writing application : ismdownloader v2.0.0.0
Writing library : ismdownloader v2.0.0.0
Video
ID : 1
Format : AVC
Format/Info : Advanced Video Codec
Format profile : [url=mailto:Main@L5.0]Main@L5.0[/url]
Format settings, CABAC : Yes
Format settings, ReFrames : 4 frames
Format settings, GOP : M=3, N=30
Codec ID : V_MPEG4/ISO/AVC
Duration : 1h 40mn
Bit rate mode : Constant
Nominal bit rate : 1 481 Kbps
Width : 1 280 pixels
Height : 720 pixels
Display aspect ratio : 16:9
Frame rate mode : Constant
Frame rate : 15.000 fps
Standard : NTSC
Color space : YUV
Chroma subsampling : 4:2:0
Bit depth : 8 bits
Scan type : Progressive
Bits/(Pixel*Frame) : 0.107
Title : video
Language : English
Default : Yes
Forced : No
Audio
ID : 2
Format : AAC
Format/Info : Advanced Audio Codec
Format profile : LC
Codec ID : A_AAC
Duration : 1h 40mn
Channel(s) : 2 channels
Channel positions : Front: L R
Sampling rate : 44.1 KHz
Compression mode : Lossy
Title : audio
Language : English
Default : Yes
Forced : No

Урок 3. Переменные и типы данных.avi

General
Format : AVI
Format/Info : Audio Video Interleave
File size : 548 MiB
Overall bit rate : 1 024 bps
Writing application : Lavf55.19.104
Video
ID : 0
Format : MPEG-4 Visual
Format profile : Simple@L1
Format settings, BVOP : Yes
Format settings, QPel : No
Format settings, GMC : No warppoints
Format settings, Matrix : Default (H.263)
Codec ID : XVID
Codec ID/Hint : XviD
Duration : 2h 9mn
Bit rate : 378 Kbps
Width : 1 920 pixels
Height : 1 080 pixels
Display aspect ratio : 16:9
Frame rate : 60.000 fps
Original frame rate : 30.000 fps
Color space : YUV
Chroma subsampling : 4:2:0
Bit depth : 8 bits
Scan type : Progressive
Compression mode : Lossy
Bits/(Pixel*Frame) : 0.003
Stream size : 352 MiB (64%)
Audio
ID : 1
Format : MPEG Audio
Format version : Version 1
Format profile : Layer 2
Codec ID : 50
Source duration : 2h 9mn
Bit rate mode : Constant
Bit rate : 192 Kbps
Channel(s) : 2 channels
Sampling rate : 48.0 KHz
Compression mode : Lossy
Stream size : 178 MiB (33%)
Alignment : Aligned on interleaves
Interleave, duration : 24 ms (1.44 video frame)

Урок 4. Условные конструкции.avi

General
Format : AVI
Format/Info : Audio Video Interleave
File size : 386 MiB
Overall bit rate : 1 126 bps
Writing application : Lavf55.19.104
Video
ID : 0
Format : MPEG-4 Visual
Format profile : Simple@L1
Format settings, BVOP : Yes
Format settings, QPel : No
Format settings, GMC : No warppoints
Format settings, Matrix : Default (H.263)
Codec ID : XVID
Codec ID/Hint : XviD
Duration : 1h 23mn
Bit rate : 437 Kbps
Width : 1 920 pixels
Height : 1 080 pixels
Display aspect ratio : 16:9
Frame rate : 60.000 fps
Original frame rate : 30.000 fps
Color space : YUV
Chroma subsampling : 4:2:0
Bit depth : 8 bits
Scan type : Progressive
Compression mode : Lossy
Bits/(Pixel*Frame) : 0.004
Stream size : 260 MiB (67%)
Audio
ID : 1
Format : MPEG Audio
Format version : Version 1
Format profile : Layer 2
Codec ID : 50
Source duration : 1h 23mn
Bit rate mode : Constant
Bit rate : 192 Kbps
Channel(s) : 2 channels
Sampling rate : 48.0 KHz
Compression mode : Lossy
Stream size : 114 MiB (30%)
Alignment : Aligned on interleaves
Interleave, duration : 24 ms (1.44 video frame)

Урок 5. Логические операции.avi

General
Format : AVI
Format/Info : Audio Video Interleave
File size : 651 MiB
Overall bit rate : 1 186 bps
Writing application : Lavf55.19.104
Video
ID : 0
Format : MPEG-4 Visual
Format profile : Simple@L1
Format settings, BVOP : Yes
Format settings, QPel : No
Format settings, GMC : No warppoints
Format settings, Matrix : Default (H.263)
Codec ID : XVID
Codec ID/Hint : XviD
Duration : 2h 13mn
Bit rate : 471 Kbps
Width : 1 920 pixels
Height : 1 080 pixels
Display aspect ratio : 16:9
Frame rate : 60.000 fps
Original frame rate : 30.000 fps
Color space : YUV
Chroma subsampling : 4:2:0
Bit depth : 8 bits
Scan type : Progressive
Compression mode : Lossy
Bits/(Pixel*Frame) : 0.004
Stream size : 449 MiB (69%)
Audio
ID : 1
Format : MPEG Audio
Format version : Version 1
Format profile : Layer 2
Codec ID : 50
Source duration : 2h 13mn
Bit rate mode : Constant
Bit rate : 192 Kbps
Channel(s) : 2 channels
Sampling rate : 48.0 KHz
Compression mode : Lossy
Stream size : 183 MiB (28%)
Alignment : Aligned on interleaves
Interleave, duration : 24 ms (1.44 video frame)

Урок 6. Циклические конструкции.avi

General
Format : AVI
Format/Info : Audio Video Interleave
File size : 411 MiB
Duration : 1h 29mn
Overall bit rate : 638 Kbps
Writing application : BandiAviMuxer 1.0
Writing library : Boilsoft AVI tool build 30012/release
Video
ID : 0
Format : MPEG-4 Visual
Format profile : Simple@L1
Format settings, BVOP : Yes
Format settings, QPel : No
Format settings, GMC : No warppoints
Format settings, Matrix : Default (H.263)
Codec ID : XVID
Codec ID/Hint : XviD
Duration : 1h 29mn
Bit rate : 435 Kbps
Width : 1 920 pixels
Height : 1 080 pixels
Display aspect ratio : 16:9
Frame rate : 30.000 fps
Color space : YUV
Chroma subsampling : 4:2:0
Bit depth : 8 bits
Scan type : Progressive
Compression mode : Lossy
Bits/(Pixel*Frame) : 0.007
Stream size : 280 MiB (68%)
Audio
ID : 1
Format : MPEG Audio
Format version : Version 1
Format profile : Layer 2
Codec ID : 50
Duration : 1h 29mn
Bit rate mode : Constant
Bit rate : 192 Kbps
Channel(s) : 2 channels
Sampling rate : 48.0 KHz
Compression mode : Lossy
Stream size : 123 MiB (30%)
Alignment : Split accross interleaves
Interleave, duration : 33 ms (1.00 video frame)
Interleave, preload duration : 500 ms

Урок 7. Методы.avi

General
Format : AVI
Format/Info : Audio Video Interleave
File size : 434 MiB
Overall bit rate : 917 bps
Writing application : Lavf55.19.104
Video
ID : 0
Format : MPEG-4 Visual
Format profile : Simple@L1
Format settings, BVOP : Yes
Format settings, QPel : No
Format settings, GMC : No warppoints
Format settings, Matrix : Default (H.263)
Codec ID : XVID
Codec ID/Hint : XviD
Duration : 1h 54mn
Bit rate : 316 Kbps
Width : 1 920 pixels
Height : 1 080 pixels
Display aspect ratio : 16:9
Frame rate : 60.000 fps
Original frame rate : 30.000 fps
Color space : YUV
Chroma subsampling : 4:2:0
Bit depth : 8 bits
Scan type : Progressive
Compression mode : Lossy
Bits/(Pixel*Frame) : 0.003
Stream size : 260 MiB (60%)
Audio
ID : 1
Format : MPEG Audio
Format version : Version 1
Format profile : Layer 2
Codec ID : 50
Source duration : 1h 54mn
Bit rate mode : Constant
Bit rate : 192 Kbps
Channel(s) : 2 channels
Sampling rate : 48.0 KHz
Compression mode : Lossy
Stream size : 158 MiB (36%)
Alignment : Aligned on interleaves
Interleave, duration : 24 ms (1.44 video frame)

Урок 8. Методы. Рекурсия.avi

General
Format : AVI
Format/Info : Audio Video Interleave
File size : 388 MiB
Duration : 1h 32mn
Overall bit rate : 587 Kbps
Writing application : BandiAviMuxer 1.0
Writing library : Boilsoft AVI tool build 30012/release
Video
ID : 0
Format : MPEG-4 Visual
Format profile : Simple@L1
Format settings, BVOP : Yes
Format settings, QPel : No
Format settings, GMC : No warppoints
Format settings, Matrix : Default (H.263)
Codec ID : XVID
Codec ID/Hint : XviD
Duration : 1h 32mn
Bit rate : 384 Kbps
Width : 1 920 pixels
Height : 1 080 pixels
Display aspect ratio : 16:9
Frame rate : 30.000 fps
Color space : YUV
Chroma subsampling : 4:2:0
Bit depth : 8 bits
Scan type : Progressive
Compression mode : Lossy
Bits/(Pixel*Frame) : 0.006
Stream size : 254 MiB (65%)
Audio
ID : 1
Format : MPEG Audio
Format version : Version 1
Format profile : Layer 2
Codec ID : 50
Duration : 1h 32mn
Bit rate mode : Constant
Bit rate : 192 Kbps
Channel(s) : 2 channels
Sampling rate : 48.0 KHz
Compression mode : Lossy
Stream size : 127 MiB (33%)
Alignment : Split accross interleaves
Interleave, duration : 33 ms (1.00 video frame)
Interleave, preload duration : 500 ms

Урок 9. Массивы.avi

General
Format : AVI
Format/Info : Audio Video Interleave
File size : 470 MiB
Duration : 1h 55mn
Overall bit rate : 568 Kbps
Writing application : BandiAviMuxer 1.0
Writing library : Boilsoft AVI tool build 30012/release
Video
ID : 0
Format : MPEG-4 Visual
Format profile : Simple@L1
Format settings, BVOP : Yes
Format settings, QPel : No
Format settings, GMC : No warppoints
Format settings, Matrix : Default (H.263)
Codec ID : XVID
Codec ID/Hint : XviD
Duration : 1h 55mn
Bit rate : 365 Kbps
Width : 1 920 pixels
Height : 1 080 pixels
Display aspect ratio : 16:9
Frame rate : 30.000 fps
Color space : YUV
Chroma subsampling : 4:2:0
Bit depth : 8 bits
Scan type : Progressive
Compression mode : Lossy
Bits/(Pixel*Frame) : 0.006
Stream size : 302 MiB (64%)
Audio
ID : 1
Format : MPEG Audio
Format version : Version 1
Format profile : Layer 2
Codec ID : 50
Duration : 1h 55mn
Bit rate mode : Constant
Bit rate : 192 Kbps
Channel(s) : 2 channels
Sampling rate : 48.0 KHz
Compression mode : Lossy
Stream size : 159 MiB (34%)
Alignment : Split accross interleaves
Interleave, duration : 33 ms (1.00 video frame)
Interleave, preload duration : 500 ms
Скриншоты:

Скачать .torrent

Для того, чтобы скачать торрент-файл

Александр Шевчук - C# Стартовый (2013)

с нашего сайта, Вам необходимо Войти на сайт под своим логином! Если у Вас ещё нет логина, тогда Вам нужно сначала Зарегистрироваться!

Как скачивать? · Что такое торрент? · Рейтинг и ограничения

Kylaksizov

Спасибо, сейчас попробуем. Давно искал.

dddddddddddddddddd

все понятно но

rkf_gatis

Спасибо!
Показать сообщения:    
Ответить на тему

Александр Шевчук - C# Стартовый (2013) скачать торрент (torrent), видеоуроки, тренинги, обучающее видео и видеокурсы

Текущее время: Сегодня 13:55

Часовой пояс: GMT + 4



Вы не можете начинать темы
Вы не можете отвечать на сообщения
Вы не можете редактировать свои сообщения
Вы не можете удалять свои сообщения
Вы не можете голосовать в опросах
Вы не можете прикреплять файлы к сообщениям
Вы не можете скачивать файлы