Александр Бурдов - Съёмка моделей в нижнем белье (2013)

Ответить на тему
 
Автор Сообщение

Yulya ®

-Александр Бурдов - Съёмка моделей в нижнем белье (2013)- Автор (режиссер): Александр Бурдов
Жанр: Обучающее видео
Продолжительность: 01:41:39
Качество видео: WEB-DLRip
Видеокодек: (H264) 23.976fps 8050kbps [Video]
Битрейт видео: ~~8000kbps
Размер кадра: 1280x720
Аудиокодек: AAC
Битрейт аудио: 192 Kbps
Описание:
Мягкий свет
Естественный свет от окна, что может быть проще? Вы узнаете, как избежать самых распространённых ошибок.
Позирование
Вы узнаете как позирование поможет подчеркнуть естественную красоту женского тела и скрыть его недостатки.
Композиция
С помощью композиции вы научитесь управлять динамикой и настроением кадра. Композиция - залог хорошего кадра.
Общение с моделью
Вы приобретёте уверенность в общении с моделью. А уверенный фотограф может раскрепостить любую девушку.
Выбор объектива
Каждый ракурс можно усилить с помощью перспективы. Вы узнаете, как подобрать нужный объектив в любой ситуации.
Анализ съёмки
Тщательный отбор и анализ ошибок на съёмке позволит вам избежать этих недочётов в следующих проектах.

MediaInfo:

General
Complete name : H:\tutorials\Александр Бурдов\Александр Бурдов - Съёмка моделей в нижнем белье (2013)\1.mp4
Format : MPEG-4
Format profile : Base Media / Version 2
Codec ID : mp42
File size : 1.82 GiB
Duration : 31mn 3s
Overall bit rate mode : Variable
Overall bit rate : 8 403 Kbps
Encoded date : UTC 2014-01-05 21:22:38
Tagged date : UTC 2014-01-05 21:25:08
©TIM : 00:00:00:00
©TSC : 24000
©TSZ : 1001
Video
ID : 1
Format : AVC
Format/Info : Advanced Video Codec
Format profile : [url=mailto:Main@L3.2]Main@L3.2[/url]
Format settings, CABAC : Yes
Format settings, ReFrames : 3 frames
Format settings, GOP : M=4, N=23
Codec ID : avc1
Codec ID/Info : Advanced Video Coding
Duration : 31mn 3s
Bit rate mode : Variable
Bit rate : 8 209 Kbps
Maximum bit rate : 10 000 Kbps
Width : 1 280 pixels
Height : 720 pixels
Display aspect ratio : 16:9
Frame rate mode : Constant
Frame rate : 23.976 fps
Standard : NTSC
Color space : YUV
Chroma subsampling : 4:2:0
Bit depth : 8 bits
Scan type : Progressive
Bits/(Pixel*Frame) : 0.372
Stream size : 1.78 GiB (98%)
Language : English
Encoded date : UTC 2014-01-05 21:22:39
Tagged date : UTC 2014-01-05 21:22:39
Audio
ID : 2
Format : AAC
Format/Info : Advanced Audio Codec
Format profile : LC
Codec ID : 40
Duration : 31mn 3s
Source duration : 31mn 3s
Bit rate mode : Variable
Bit rate : 192 Kbps
Maximum bit rate : 293 Kbps
Channel count : 2 channels
Channel positions : Front: L R
Sampling rate : 48.0 KHz
Compression mode : Lossy
Stream size : 42.1 MiB (2%)
Source stream size : 42.1 MiB (2%)
Language : English
Encoded date : UTC 2014-01-05 21:22:39
Tagged date : UTC 2014-01-05 21:22:39
Скриншоты:
Скачать .torrent

Для того, чтобы скачать торрент-файл

Александр Бурдов - Съёмка моделей в нижнем белье (2013)

с нашего сайта, Вам необходимо Войти на сайт под своим логином! Если у Вас ещё нет логина, тогда Вам нужно сначала Зарегистрироваться!

Как скачивать? · Что такое торрент? · Рейтинг и ограничения

Показать сообщения:    
Ответить на тему

Александр Бурдов - Съёмка моделей в нижнем белье (2013) скачать торрент (torrent), видеоуроки, тренинги, обучающее видео и видеокурсы

Текущее время: Сегодня 23:23

Часовой пояс: GMT + 4



Вы не можете начинать темы
Вы не можете отвечать на сообщения
Вы не можете редактировать свои сообщения
Вы не можете удалять свои сообщения
Вы не можете голосовать в опросах
Вы не можете прикреплять файлы к сообщениям
Вы не можете скачивать файлы