Последнее из V.I.P.-раздела

10-Авг
10-Авг
10-Авг
10-Авг
10-Авг
10-Авг
10-Авг
10-Авг
10-Авг
10-Авг
10-Авг
10-Авг
10-Авг
10-Авг
10-Авг
10-Авг
10-Авг
09-Авг
09-Авг
09-Авг

Новости о коронавирусе

Александр Бурдов - Цветокоррекция и тонирование (2014)

Ответить на тему
 
Автор Сообщение

Yulya ®

-Александр Бурдов - Цветокоррекция и тонирование (2014)- Автор (режиссер): Александр Бурдов
Жанр: Обучающее видео
Продолжительность: 02:46:58
Качество видео: PCRec
Видеокодек: Xvid
Битрейт видео: ~199 Kbps
Размер кадра: 1920x992
Аудиокодек: MP3
Битрейт аудио: 128kbps
Описание:
ПРОГРАММА МАСТЕР-КЛАССА:
Портфолио свадебного фотографа. Свой стиль.
Реклама и раскрутка своего бренда.
Ценообразование.
Немного о клиентах. Встреча. Общение. Договор.
Техника и оптика. Роль инструмента в создании хорошего фото.
Выбор места и времени для проведения съемки. Love Story.
Роль цвета в восприятии фото.
Adobe Lightroom 4.
Настройка и оптимизация.
Сортировка.
Цветокоррекция
- инструменты
- тонкая настройка
- типичные ошибки
Конвертация.
Adobe Lightroom 4.
Продолжение.
Adobe Photoshop.
Настройка и оптимизация.
Цветовые модели RGB и LAB.
Преимущества LAB.
Режимы наложения слоев. Корректирующие слои.
Обработка серии в одном стиле.
Нейтральные тона или приведение серии "к общему знаменателю".
Тонирование. Кривые как инструмент тонкой настройки цвета.
Практика. Вопрос - Ответ.

МедиаИнфо:

General
Complete name : H:\tutorials\Александр Бурдов\Александр Бурдов - Цветокоррекция и тонирование (2014)\МК. Александр Бурдов.avi
Format : AVI
Format/Info : Audio Video Interleave
File size : 394 MiB
Duration : 2h 46mn
Overall bit rate : 330 Kbps
Video
ID : 0
Format : MPEG-4 Visual
Format profile : Advanced Simple@L5
Format settings, BVOP : Yes
Format settings, QPel : No
Format settings, GMC : No warppoints
Format settings, Matrix : Default (H.263)
Codec ID : XVID
Codec ID/Hint : XviD
Duration : 2h 46mn
Bit rate : 199 Kbps
Width : 1 920 pixels
Height : 992 pixels
Display aspect ratio : 1.935
Frame rate : 8.000 fps
Original frame rate : 25.000 fps
Color space : YUV
Chroma subsampling : 4:2:0
Bit depth : 8 bits
Scan type : Progressive
Compression mode : Lossy
Bits/(Pixel*Frame) : 0.013
Stream size : 238 MiB (61%)
Writing library : XviD 64
Audio
ID : 1
Format : MPEG Audio
Format version : Version 1
Format profile : Layer 3
Codec ID : 55
Codec ID/Hint : MP3
Duration : 2h 46mn
Bit rate mode : Constant
Bit rate : 128 Kbps
Channel count : 1 channel
Sampling rate : 48.0 KHz
Compression mode : Lossy
Stream size : 153 MiB (39%)
Alignment : Aligned on interleaves
Interleave, duration : 125 ms (1.00 video frame)
Interleave, preload duration : 144 ms
Скриншоты:
Скачать .torrent

Для того, чтобы скачать торрент-файл

Александр Бурдов - Цветокоррекция и тонирование (2014)

с нашего сайта, Вам необходимо Войти на сайт под своим логином! Если у Вас ещё нет логина, тогда Вам нужно сначала Зарегистрироваться!

Как скачивать? · Что такое торрент? · Рейтинг и ограничения

Показать сообщения:    
Ответить на тему

Александр Бурдов - Цветокоррекция и тонирование (2014) скачать торрент (torrent), видеоуроки, тренинги, обучающее видео и видеокурсы

Текущее время: Сегодня 01:35

Часовой пояс: GMT + 4



Вы не можете начинать темы
Вы не можете отвечать на сообщения
Вы не можете редактировать свои сообщения
Вы не можете удалять свои сообщения
Вы не можете голосовать в опросах
Вы не можете прикреплять файлы к сообщениям
Вы не можете скачивать файлы