[Profileschool] Александр Чалдрян - 3D LUT Creator. Следуй за белым кроликом (2014)

Ответить на тему
 
Автор Сообщение

Yulya ®

-[Profileschool] Александр Чалдрян | 3D LUT Creator. Следуй за белым кроликом (2014) PCRec- Автор (режиссер): Александр Чалдрян
Жанр: Обучающее видео
Продолжительность: 03:18:15
Качество видео: PCRec
Видеокодек: AVC (h264)
Битрейт видео: ~514 Kbps
Размер кадра: 1120*630
Аудиокодек: AAC
Битрейт аудио: 53.0 Kbps
Описание:
Основная прелесть 3D LUT заключается в практически бесконечных возможностях цветокоррекции серийных снимков, но может с успехом применяться и в покадровой обработке.
3D LUT существует уже не первый десяток лет. Но широкое распространение вне профессиональных студий кинопостпродакшена подход начал получать достаточно недавно. Принципиально результат, полученный при использовании 3D LUT, можно повторить и стандартными средствами Photoshop. Однако скорость и удобство работы в первом случае имеют явные преимущества.
Программа 3D LUT Creator – один из инструментов по созданию таблиц 3D LUT. Помимо создания таблиц программа обладает крайне удобным инструментом, который позволяет манипулировать цветом в зависимости от оттенков, насыщенностей и тональностей. В основу идеи создания этого инструмента лег инструмент Liquify, знакомый вам из Photoshop. На онлайн мастер-классе мы разберемся со спецификой строения LUT’а и научимся работать с программой 3D LUT Creator.

MediaInfo:

General
Complete name : H:\tutorials\profileschool.ru\Александр Чалдрян - 3D LUT Creator. Следуй за белым кроликом (2014)\Lut.mp4
Format : MPEG-4
Format profile : Base Media / Version 2
Codec ID : mp42
File size : 808 MiB
Duration : 3h 18mn
Overall bit rate : 570 Kbps
Encoded date : UTC 2014-07-31 16:08:25
Tagged date : UTC 2014-07-31 16:08:25
Video
ID : 1
Format : AVC
Format/Info : Advanced Video Codec
Format profile : [url=mailto:High@L4.0]High@L4.0[/url]
Format settings, CABAC : Yes
Format settings, ReFrames : 4 frames
Codec ID : avc1
Codec ID/Info : Advanced Video Coding
Duration : 3h 18mn
Source duration : 3h 18mn
Bit rate : 514 Kbps
Width : 1 120 pixels
Height : 630 pixels
Display aspect ratio : 16:9
Frame rate mode : Constant
Frame rate : 15.000 fps
Color space : YUV
Chroma subsampling : 4:2:0
Bit depth : 8 bits
Scan type : Progressive
Bits/(Pixel*Frame) : 0.049
Stream size : 730 MiB (90%)
Source stream size : 730 MiB (90%)
Language : English
Encoded date : UTC 2014-07-31 16:08:25
Tagged date : UTC 2014-07-31 16:08:25
Color primaries : BT.709
Transfer characteristics : BT.709
Matrix coefficients : BT.709
mdhd_Duration : 11893811
Audio
ID : 2
Format : AAC
Format/Info : Advanced Audio Codec
Format profile : LC
Codec ID : 40
Duration : 3h 18mn
Source duration : 3h 18mn
Bit rate mode : Constant
Bit rate : 53.0 Kbps
Channel count : 2 channels
Channel positions : Front: L R
Sampling rate : 44.1 KHz
Compression mode : Lossy
Stream size : 75.6 MiB (9%)
Source stream size : 75.6 MiB (9%)
Language : English
Encoded date : UTC 2014-07-31 16:08:25
Tagged date : UTC 2014-07-31 16:08:25
mdhd_Duration : 11964212
Скриншоты:
Скачать .torrent

Для того, чтобы скачать торрент-файл

[Profileschool] Александр Чалдрян - 3D LUT Creator. Следуй за белым кроликом (2014)

с нашего сайта, Вам необходимо Войти на сайт под своим логином! Если у Вас ещё нет логина, тогда Вам нужно сначала Зарегистрироваться!

Как скачивать? · Что такое торрент? · Рейтинг и ограничения

Показать сообщения:    
Ответить на тему

[Profileschool] Александр Чалдрян - 3D LUT Creator. Следуй за белым кроликом (2014) скачать торрент (torrent), видеоуроки, тренинги, обучающее видео и видеокурсы

Текущее время: Сегодня 20:44

Часовой пояс: GMT + 4



Вы не можете начинать темы
Вы не можете отвечать на сообщения
Вы не можете редактировать свои сообщения
Вы не можете удалять свои сообщения
Вы не можете голосовать в опросах
Вы не можете прикреплять файлы к сообщениям
Вы не можете скачивать файлы