Игорь Гуляев - Обработка фотографий в стиле RARINDRA (2013)

Ответить на тему
 
Автор Сообщение

Yulya ®

-Игорь Гуляев - Обработка фотографий в стиле RARINDRA (2013)- Автор (режиссер): Игорь Гуляев
Жанр: Обучающие видео-уроки
Продолжительность: 03:05:02
Качество видео: PCRec
Видеокодек: AVC
Битрейт видео: ~219 - 552 kb/s
Размер кадра: 640x360
Аудиокодек: AAC
Битрейт аудио: 109 - 112 kb/s
Описание:
Из курса вы узнаете:
Как менять световую схему на фотографии;
Как создавать атмосферный свет;
Научитесь работать со сложными масками;
Научитесь прорисовывать тени;
Научитесь разделять передний и задний план;
Узнаете, как увеличивать перспективу за счет света.

Дополнение к курсу:

Художественная обработка фотографии:
Научитесь работать с текстурами
Узнаете, как была сделана фотография призер WPPI.
Узнаете, как быстро затонировать ваш снимок.
Освоите цветовое акцентирование.
Освоите новую технику стилизации.
Обработка фотографии в стиле блокбастера:
Узнаете, как из обычного снимка сделать постер к блокбастеру.
Научитесь работать со сложными масками.
Научитесь добавлять объем снимку с помощью светописи.
Освоите основы коллажа.
На практике узнаете о режимах наложения слоев.

Бонус:

Записи 4-х дневного флешмоба по профессиональной обработке фотографий (Август 2013) от Игоря Гуляева и Ласло Габани.
1. День. Светопись
2. День. Ретушь
3. Дeнь. Тонирование и цветовые акценты
4. День. Художественные приeмы

MediaInfo:

Код:
Общее
Полное имя                               : C:\Users\Mit\Documents\Гуляев И. - Обработка фотографий в стиле RARINDRA - 2013\БОНУС Флешмoб - Август 2013\4. День. Художественные приeмы.mp4
Формат                                   : MPEG-4
Профиль формата                          : Base Media / Version 2
Идентификатор кодека                     : mp42
Размер файла                             : 67,5 Мбайт
Продолжительность                        : 28 м.
Режим общего битрейта                    : Переменный
Общий поток                              : 333 Кбит/сек
Дата кодирования                         : UTC 2013-08-09 10:13:41
Дата пометки                             : UTC 2013-08-09 10:13:41
Видео
Идентификатор                            : 1
Формат                                   : AVC
Формат/Информация                        : Advanced Video Codec
Профиль формата                          : [url=mailto:High@L3.1]High@L3.1[/url]
Параметр CABAC формата                   : Да
Параметр ReFrames формата                : 4 кадра
Идентификатор кодека                     : avc1
Идентификатор кодека/Информация          : Advanced Video Coding
Продолжительность                        : 28 м.
Битрейт                                  : 219 Кбит/сек
Ширина                                   : 640 пикселей
Высота                                   : 360 пикселей
Соотношение сторон                       : 16:9
Режим частоты кадров                     : Постоянный
Частота кадров                           : 25,000 кадров/сек
Цветовое пространство                    : YUV
Субдискретизация насыщенности            : 4:2:0
Битовая глубина                          : 8 бит
Тип развёртки                            : Прогрессивная
Бит/(Пиксели*Кадры)                      : 0.038
Размер потока                            : 44,5 Мбайт (66%)
Библиотека кодирования                   : x264 core 129 r2245 bc13772
Настройки программы                      : cabac=1 / ref=3 / deblock=1:0:0 / analyse=0x3:0x113 / me=hex / subme=7 / psy=1 / psy_rd=1.00:0.00 / mixed_ref=1 / me_range=16 / chroma_me=1 / trellis=1 / 8x8dct=1 / cqm=0 / deadzone=21,11 / fast_pskip=1 / chroma_qp_offset=-2 / threads=12 / lookahead_threads=2 / sliced_threads=0 / nr=0 / decimate=1 / interlaced=0 / bluray_compat=0 / constrained_intra=0 / bframes=3 / b_pyramid=2 / b_adapt=1 / b_bias=0 / direct=1 / weightb=1 / open_gop=0 / weightp=2 / keyint=75 / keyint_min=25 / scenecut=40 / intra_refresh=0 / rc_lookahead=40 / rc=2pass / mbtree=1 / bitrate=219 / ratetol=1.0 / qcomp=0.60 / qpmin=5 / qpmax=69 / qpstep=4 / cplxblur=20.0 / qblur=0.5 / vbv_maxrate=1125 / vbv_bufsize=3750 / nal_hrd=none / ip_ratio=1.40 / aq=1:1.00
Дата кодирования                         : UTC 2013-08-09 10:13:41
Дата пометки                             : UTC 2013-08-09 10:13:41
Аудио
Идентификатор                            : 2
Формат                                   : AAC
Формат/Информация                        : Advanced Audio Codec
Профиль формата                          : LC
Идентификатор кодека                     : 40
Продолжительность                        : 28 м.
Продолжительность оригинала              : 28 м.
Вид битрейта                             : Переменный
Битрейт                                  : 109 Кбит/сек
Каналы                                   : 2 канала
Расположение каналов                     : Front: L R
Частота                                  : 48,0 КГц
Метод сжатия                             : С потерями
Размер потока                            : 22,2 Мбайт (33%)
Размер потока оригинала                  : 22,2 Мбайт (33%)
Дата кодирования                         : UTC 2013-08-09 10:13:41
Дата пометки                             : UTC 2013-08-09 10:13:41
Код:
Общее
Полное имя                               : C:\Users\Mit\Documents\Гуляев И. - Обработка фотографий в стиле RARINDRA - 2013\1. Обработка в стиле Rarindra Prakarsa.mp4
Формат                                   : MPEG-4
Профиль формата                          : Base Media / Version 2
Идентификатор кодека                     : mp42
Размер файла                             : 221 Мбайт
Продолжительность                        : 46 м.
Режим общего битрейта                    : Переменный
Общий поток                              : 665 Кбит/сек
Дата кодирования                         : UTC 2013-08-09 10:14:30
Дата пометки                             : UTC 2013-08-09 10:14:30
Видео
Идентификатор                            : 1
Формат                                   : AVC
Формат/Информация                        : Advanced Video Codec
Профиль формата                          : [url=mailto:High@L3.1]High@L3.1[/url]
Параметр CABAC формата                   : Да
Параметр ReFrames формата                : 4 кадра
Идентификатор кодека                     : avc1
Идентификатор кодека/Информация          : Advanced Video Coding
Продолжительность                        : 46 м.
Битрейт                                  : 552 Кбит/сек
Ширина                                   : 640 пикселей
Высота                                   : 360 пикселей
Соотношение сторон                       : 16:9
Режим частоты кадров                     : Постоянный
Частота кадров                           : 25,000 кадров/сек
Цветовое пространство                    : YUV
Субдискретизация насыщенности            : 4:2:0
Битовая глубина                          : 8 бит
Тип развёртки                            : Прогрессивная
Бит/(Пиксели*Кадры)                      : 0.096
Размер потока                            : 183 Мбайт (83%)
Библиотека кодирования                   : x264 core 129 r2245 bc13772
Настройки программы                      : cabac=1 / ref=3 / deblock=1:0:0 / analyse=0x3:0x113 / me=hex / subme=7 / psy=1 / psy_rd=1.00:0.00 / mixed_ref=1 / me_range=16 / chroma_me=1 / trellis=1 / 8x8dct=1 / cqm=0 / deadzone=21,11 / fast_pskip=1 / chroma_qp_offset=-2 / threads=12 / lookahead_threads=2 / sliced_threads=0 / nr=0 / decimate=1 / interlaced=0 / bluray_compat=0 / constrained_intra=0 / bframes=3 / b_pyramid=2 / b_adapt=1 / b_bias=0 / direct=1 / weightb=1 / open_gop=0 / weightp=2 / keyint=75 / keyint_min=25 / scenecut=40 / intra_refresh=0 / rc_lookahead=40 / rc=2pass / mbtree=1 / bitrate=552 / ratetol=1.0 / qcomp=0.60 / qpmin=5 / qpmax=69 / qpstep=4 / cplxblur=20.0 / qblur=0.5 / vbv_maxrate=1125 / vbv_bufsize=3750 / nal_hrd=none / ip_ratio=1.40 / aq=1:1.00
Дата кодирования                         : UTC 2013-08-09 10:14:30
Дата пометки                             : UTC 2013-08-09 10:14:30
Аудио
Идентификатор                            : 2
Формат                                   : AAC
Формат/Информация                        : Advanced Audio Codec
Профиль формата                          : LC
Идентификатор кодека                     : 40
Продолжительность                        : 46 м.
Продолжительность оригинала              : 46 м.
Вид битрейта                             : Переменный
Битрейт                                  : 109 Кбит/сек
Каналы                                   : 2 канала
Расположение каналов                     : Front: L R
Частота                                  : 48,0 КГц
Метод сжатия                             : С потерями
Размер потока                            : 36,3 Мбайт (16%)
Размер потока оригинала                  : 36,3 Мбайт (16%)
Дата кодирования                         : UTC 2013-08-09 10:14:30
Дата пометки                             : UTC 2013-08-09 10:14:30
Скриншоты:
Скачать .torrent

Для того, чтобы скачать торрент-файл

Игорь Гуляев - Обработка фотографий в стиле RARINDRA (2013)

с нашего сайта, Вам необходимо Войти на сайт под своим логином! Если у Вас ещё нет логина, тогда Вам нужно сначала Зарегистрироваться!

Как скачивать? · Что такое торрент? · Рейтинг и ограничения

Vitali Po

спасибо

allcool

Супер. Спасибо большое))

gemmma

Спасибо:))))

Сова007

Спасибо)
Показать сообщения:    
Ответить на тему

Игорь Гуляев - Обработка фотографий в стиле RARINDRA (2013) скачать торрент (torrent), видеоуроки, тренинги, обучающее видео и видеокурсы

Текущее время: Сегодня 15:05

Часовой пояс: GMT + 4



Вы не можете начинать темы
Вы не можете отвечать на сообщения
Вы не можете редактировать свои сообщения
Вы не можете удалять свои сообщения
Вы не можете голосовать в опросах
Вы не можете прикреплять файлы к сообщениям
Вы не можете скачивать файлы