Анатолий Алексеев - Глянцевая ретушь и цветокоррекция за 5 минут (2014)

Ответить на тему
 
Автор Сообщение

Yulya ®

-Анатолий Алексеев - Глянцевая ретушь и цветокоррекция за 5 минут (2014)-. Автор (режиссер): Анатолий Алексеев
Жанр: Мастер-класс
Продолжительность: 04:27:14
Качество видео: PCRec
Видеокодек: AVC
Битрейт видео: ~23.976fps 1731kbps
Размер кадра: 1280x720
Аудиокодек: AAC
Битрейт аудио: 48000Hz stereo 157kbps
Доп. материалы: Имеются
Описание:
Данный мастер-класс будет посвящен быстрой и качественной ретуши под глянец.
Ведущий мастер-класса Анатолий Алексеев, успешный коммерческий фотограф со стажем, расскажет все об обработке. Поделится авторским методом ретуши кожи который подходит всем типа людей независимо от возраста и пола. Также вы узнаете все о тонировании и цветокоррекции. И самое главное – развеет миф о том, что качественная ретушь это долго!

Дополнительная информация:

План мастер-класса
Занятие №1.
— Вводная часть. Знакомство.
— Методика анализа изображения и составление карты недостатков.
— Методики ретуши кожи, обзор, достоинства и недостатки.
— Методы изменения свето-теневого рисунка.
— Методы повышения контраста.
— Оптимизация работы ретушера. Плагины и экшены.
Занятие №2.
— Вводная часть. Основные понятия работы с цветом.
— Цветовое тонирование в популярных RAW конвертерах.
— Цветовое тонирование при использовании Adobe Photoshop.
— Методики имитации пленочного кадра.
— Оптимизация работы.Сторонние программы и плагины.

MI

Общее
Полное имя : D:\Торренты\Глянцевая Ретушь и Цветокоррекция за 5 минут\Глянцевая Ретушь и Цветокоррекция за 5 минут. День первый\Глянцевая Ретушь и Цветокоррекция за 5 минут. День первый\Видео\5 Min Gloss Retouch And Color Correction (Day1).mp4
Формат : MPEG-4
Идентификатор кодека : M4V
Размер файла : 1,95 Гбайт
Продолжительность : 2 ч. 27 м.
Режим общего битрейта : Переменный
Общий поток : 1891 Кбит/сек
Дата кодирования : UTC 2012-12-20 17:46:21
Дата пометки : UTC 2012-12-20 17:47:40
©TIM : 00:00:00:00
©TSC : 24000
©TSZ : 1001
Видео
Идентификатор : 1
Формат : AVC
Формат/Информация : Advanced Video Codec
Профиль формата : [url=mailto:Baseline@L3.1]Baseline@L3.1[/url]
Параметр CABAC формата : Нет
Параметр ReFrames формата : 2 кадра
Идентификатор кодека : avc1
Идентификатор кодека/Информация : Advanced Video Coding
Продолжительность : 2 ч. 27 м.
Продолжительность оригинала : 2 ч. 27 м.
Вид битрейта : Переменный
Битрейт : 1731 Кбит/сек
Ширина : 1280 пикселей
Высота : 720 пикселей
Соотношение сторон : 16:9
Режим частоты кадров : Переменный
Частота кадров : 23,976 кадра/сек
Минимальная частота кадров : 23,976 кадра/сек
Максимальная частота кадров : 24,000 кадра/сек
Стандарт вещания : NTSC
Цветовое пространство : YUV
Субдискретизация насыщенности : 4:2:0
Битовая глубина : 8 бит
Тип развёртки : Прогрессивная
Бит/(Пиксели*Кадры) : 0.078
Размер потока : 1,78 Гбайт (92%)
Размер потока оригинала : 1,78 Гбайт (92%)
Язык : English
Дата кодирования : UTC 2012-12-20 17:46:21
Дата пометки : UTC 2012-12-20 17:46:21
mdhd_Duration : 8834159
Аудио
Идентификатор : 2
Формат : AAC
Формат/Информация : Advanced Audio Codec
Профиль формата : LC
Идентификатор кодека : 40
Продолжительность : 2 ч. 27 м.
Продолжительность оригинала : 2 ч. 27 м.
Вид битрейта : Переменный
Битрейт : 157 Кбит/сек
Максимальный битрейт : 246 Кбит/сек
Каналы : 2 канала
Расположение каналов : Front: L R
Частота : 48,0 КГц
Метод сжатия : С потерями
Размер потока : 166 Мбайт (8%)
Размер потока оригинала : 166 Мбайт (8%)
Язык : English
Дата кодирования : UTC 2012-12-20 17:46:21
Дата пометки : UTC 2012-12-20 17:46:21
mdhd_Duration : 8834240
Скриншоты:
Скачать .torrent

Для того, чтобы скачать торрент-файл

Анатолий Алексеев - Глянцевая ретушь и цветокоррекция за 5 минут (2014)

с нашего сайта, Вам необходимо Войти на сайт под своим логином! Если у Вас ещё нет логина, тогда Вам нужно сначала Зарегистрироваться!

Как скачивать? · Что такое торрент? · Рейтинг и ограничения

jannet1552

спасибо, спасибо и еще раз спасибо! bi bp bp

Atriusdeus

Тоже заинтересовался просмотром, сейчас буду качать.

kazachyok

Отличная тема. Но метод уже давно устарел...
Показать сообщения:    
Ответить на тему

Анатолий Алексеев - Глянцевая ретушь и цветокоррекция за 5 минут (2014) скачать торрент (torrent), видеоуроки, тренинги, обучающее видео и видеокурсы

Текущее время: Сегодня 02:39

Часовой пояс: GMT + 4



Вы не можете начинать темы
Вы не можете отвечать на сообщения
Вы не можете редактировать свои сообщения
Вы не можете удалять свои сообщения
Вы не можете голосовать в опросах
Вы не можете прикреплять файлы к сообщениям
Вы не можете скачивать файлы