Последнее из V.I.P.-раздела

25-Сен
25-Сен
25-Сен
25-Сен
25-Сен
25-Сен
25-Сен
25-Сен
25-Сен
25-Сен
25-Сен
25-Сен
25-Сен
25-Сен
25-Сен
25-Сен
25-Сен
25-Сен
25-Сен
25-Сен

Новости о коронавирусе

TheTunes.Ru - Мастерская коммерческих треков (2014)

Ответить на тему
 
Автор Сообщение

Yulya ®

-TheTunes.Ru - Мастерская коммерческих треков (2014)- Автор (режиссер): TheTunes.Ru
Жанр: Работа со звуком
Язык: Русский
Продолжительность: 08:57:07
Качество видео: PCRec
Видеокодек: AVC/H.264
Битрейт видео: ~4 100 Kbps, 30.000 fps
Размер кадра: 1920x1080, 16:9
Аудиокодек: AAC
Битрейт аудио: 192 Kbps, 2 channels, 44.1 KHz
Описание: Создание коммерческого трека шаг за шагом. С нуля до релиза. Обучение проходит в Fl Studio
Как сделать качественный, коммерческий трек в домашней студии?
Как добиться плотного и мощного звука?
Каким образом делать крутой лееринг?
Какие синтезаторы использовать?
Как применять звук «железных» синтезаторов не имея их?
Ответы на все эти и многие другие вопросы в этом курсе. На ваших глазах, шаг за шагом, создается качественный, коммерческий трек, который подписывается на лейбле.
Более 8 часов видео, 56 видеоуроков в формате HD

MediaInfo:

Общее
Полное имя : E:\TheTunes.Ru - Мастерская коммерческих треков\disk1\Content\video\1.mp4
Формат : MPEG-4
Профиль формата : Base Media
Идентификатор кодека : isom
Размер файла : 234 Мбайт
Продолжительность : 7 м. 36 с.
Общий поток : 4296 Кбит/сек
Название фильма : Template
Программа кодирования : Lavf55.42.100
Видео
Идентификатор : 1
Формат : AVC
Формат/Информация : Advanced Video Codec
Профиль формата : [url=mailto:Baseline@L4.0]Baseline@L4.0[/url]
Параметр CABAC формата : Нет
Параметр ReFrames формата : 3 кадра
Идентификатор кодека : avc1
Идентификатор кодека/Информация : Advanced Video Coding
Продолжительность : 7 м. 36 с.
Битрейт : 4100 Кбит/сек
Ширина : 1920 пикселей
Высота : 1080 пикселей
Соотношение сторон : 16:9
Режим частоты кадров : Переменный
Частота кадров : 30,000 кадров/сек
Минимальная частота кадров : 30,000 кадров/сек
Максимальная частота кадров : 30,059 кадров/сек
Стандарт вещания : NTSC
Цветовое пространство : YUV
Субдискретизация насыщенности : 4:2:0
Битовая глубина : 8 бит
Тип развёртки : Прогрессивная
Бит/(Пиксели*Кадры) : 0.066
Размер потока : 223 Мбайт (95%)
Язык : English
Аудио
Идентификатор : 2
Формат : AAC
Формат/Информация : Advanced Audio Codec
Профиль формата : LC
Идентификатор кодека : 40
Продолжительность : 7 м. 36 с.
Вид битрейта : Постоянный
Битрейт : 192 Кбит/сек
Каналы : 2 канала
Расположение каналов : Front: L R
Частота : 44,1 КГц
Метод сжатия : С потерями
Размер потока : 10,3 Мбайт (4%)
Язык : English
Скриншоты:
Скачать .torrent

Для того, чтобы скачать торрент-файл

TheTunes.Ru - Мастерская коммерческих треков (2014)

с нашего сайта, Вам необходимо Войти на сайт под своим логином! Если у Вас ещё нет логина, тогда Вам нужно сначала Зарегистрироваться!

Как скачивать? · Что такое торрент? · Рейтинг и ограничения

Tanneberger

У кого есть Мастерская коммерческих треков 2.0: Uplifting Trance??? Очень нада!
Показать сообщения:    
Ответить на тему

TheTunes.Ru - Мастерская коммерческих треков (2014) скачать торрент (torrent), видеоуроки, тренинги, обучающее видео и видеокурсы

Текущее время: Сегодня 14:06

Часовой пояс: GMT + 4



Вы не можете начинать темы
Вы не можете отвечать на сообщения
Вы не можете редактировать свои сообщения
Вы не можете удалять свои сообщения
Вы не можете голосовать в опросах
Вы не можете прикреплять файлы к сообщениям
Вы не можете скачивать файлы