Последнее из V.I.P.-раздела

10-Авг
10-Авг
10-Авг
10-Авг
10-Авг
10-Авг
10-Авг
10-Авг
10-Авг
10-Авг
10-Авг
10-Авг
10-Авг
10-Авг
10-Авг
10-Авг
10-Авг
09-Авг
09-Авг
09-Авг

Новости о коронавирусе

TheTunes.Ru - Лееринг: мощный звук без сложной обработки (2014)

Ответить на тему
 
Автор Сообщение

Yulya ®

-TheTunes.Ru - Лееринг: мощный звук без сложной обработки (2014)- Автор (режиссер): TheTunes.Ru
Жанр: Работа со звуком
Язык: Русский
Продолжительность: 08:26:18
Качество видео: PCRec
Видеокодек: AVC/H.264
Битрейт видео: ~2567 Kbps, 15.000 fps
Размер кадра: 1920x1080, 16:9
Аудиокодек: AAC
Битрейт аудио: 139 Kbps, 2 channels, 44.1 KHz
Описание:
Хотите с помощью лееринга, без сложной обработки получать сочное звучание мировых хитов? Изучив курс «Лееринг: мощный звук без сложной обработки», Вы:
• Научитесь создавать мощный и жирный звук за 1 час, без сложной обработки.
• Научитесь делать профессиональное, яркое звучание своих треков еще до сведения.
• Поймёте как получать насыщенный звук без «железных» синтезаторов.
•Научитесь профессионально подбирать инструменты при лееринге.
Ваши треки зазвучат намного профессиональней и совершенно по-новому!

Содержание:

Вводная часть
Видео 1. Введение 07:07
Видео 2. Как работать с курсом и доп. материалами 07:07
Видео 3. О лееринге 07:07
Видео 4. Правила лееринга 07:07
Часть 1. Лееринг лидов (Lead)
Урок 1.1. Главная методика лееринга лидов 07:07
Урок 1.2. Лееринг Super Saw Lead 06:45
Урок 1.3. Лееринг Progressive House Lead 08:34
Урок 1.4. Лееринг Lead в стиле Arty 04:44
Урок 1.5. Лееринг Uplifting Trance Lead 12:40
Урок 1.6. Лееринг House Lead 06:02
Урок 1.7. Лееринг эпичного оркестрового лида 08:26
Урок 1.8. Лееринг Big Room Lead 06:14
Урок 1.9. Лееринг Dream Lead 09:41
Урок 1.10. Лееринг Pluck Lead 08:22
Часть 2. Лееринг басов (Bass)
Урок 2.1. Главное правило лееринга басов 07:07
Урок 2.2. Лееринг Progressive Bass 06:45
Урок 2.3. Лееринг Electro Bass 1 08:34
Урок 2.4. Лееринг мощного Saw Bass 04:44
Урок 2.5. Лееринг разорванного Dirty Bass 12:40
Урок 2.6. Лееринг баса в стиле Orjan Nilsen 06:02
Урок 2.7. Лееринг перкуссионного Sine Bass 08:26
Урок 2.8. Лееринг очень глубокого Sub Bass 06:14
Урок 2.9. Лееринг Electro Bass 2 09:41
Урок 2.10. Лееринг Pluck Bass для Trance стилей 08:22
Урок 2.11. Лееринг Uplifting Bass 08:22
Урок 2.12. Лееринг Лееринг Psy Bass 08:22
Часть 3. Лееринг пэдов (Pads)
Урок 3.1. Главное правило лееринга пэдов 07:07
Урок 3.2. Лееринг эпичного Nosie Pad 06:45
Урок 3.3. Лееринг Atmo Pad 08:34
Урок 3.4. Лееринг Orchestre Pad 04:44
Урок 3.5. Лееринг Deep Pad 12:40
Урок 3.6. Лееринг атмосферных звуков 06:02
Урок 3.7. Лееринг эпичного хора 08:26
Часть 4. Лееринг Kick Drum
Урок 4.1. Лееринг Kick Drum. Методика 1 07:07
Урок 4.2. Лееринг Kick Drum. Методика 2 06:45
Урок 4.3. Лееринг Kick Drum. Методика 3 08:34
Часть 5. Лееринг Claps & Snare
Урок 5.1. Лееринг Claps. Методика 1 07:07
Урок 5.2. Лееринг Claps. Методика 2 06:45
Урок 5.3. Лееринг Snare. Утяжеление Snare 08:34
Урок 5.4. Лееринг Snare. Создания мощного Snare 04:44
Урок 5.5. Лееринг Snare. Креативная методика 12:40
Часть 6. Лееринг высокочастотной перкуссии
Урок 6.1. Лееринг Shaker 07:07
Урок 6.2. Лееринг Open Hats 06:45
Урок 6.3. Лееринг Cymbals 08:34
Часть 7. Лееринг "разгонных" инструментов
Урок 7.1. Лееринг Rise Up Lead. Методика 1 07:07
Урок 7.2. Лееринг Rise Up Lead. Методика 2 06:45
Урок 7.3. Лееринг Rise Up Lead. Методика 3 08:34
Заключение

MediaInfo:

Общее
Полное имя : E:\TheTunes.Ru - Лееринг. Мощный звук без сложной обработки\Content\video\1.1.mp4
Формат : MPEG-4
Профиль формата : Base Media
Идентификатор кодека : isom
Размер файла : 22,4 Мбайт
Продолжительность : 1 м. 9 с.
Общий поток : 2710 Кбит/сек
Программа кодирования : Lavf55.42.100
Видео
Идентификатор : 1
Формат : AVC
Формат/Информация : Advanced Video Codec
Профиль формата : [url=mailto:Main@L5.0]Main@L5.0[/url]
Параметр CABAC формата : Да
Параметр ReFrames формата : 5 кадров
Идентификатор кодека : avc1
Идентификатор кодека/Информация : Advanced Video Coding
Продолжительность : 1 м. 9 с.
Битрейт : 2567 Кбит/сек
Ширина : 1920 пикселей
Высота : 1080 пикселей
Соотношение сторон : 16:9
Режим частоты кадров : Постоянный
Частота кадров : 15,000 кадров/сек
Цветовое пространство : YUV
Субдискретизация насыщенности : 4:2:0
Битовая глубина : 8 бит
Тип развёртки : Прогрессивная
Бит/(Пиксели*Кадры) : 0.083
Размер потока : 21,2 Мбайт (95%)
Аудио
Идентификатор : 2
Формат : AAC
Формат/Информация : Advanced Audio Codec
Профиль формата : LC
Идентификатор кодека : 40
Продолжительность : 1 м. 9 с.
Вид битрейта : Постоянный
Битрейт : 139 Кбит/сек
Каналы : 2 канала
Расположение каналов : Front: L R
Частота : 44,1 КГц
Метод сжатия : С потерями
Задержка видео : 133 мс.
Размер потока : 1,15 Мбайт (5%)
Скриншоты:
Скачать .torrent

Для того, чтобы скачать торрент-файл

TheTunes.Ru - Лееринг: мощный звук без сложной обработки (2014)

с нашего сайта, Вам необходимо Войти на сайт под своим логином! Если у Вас ещё нет логина, тогда Вам нужно сначала Зарегистрироваться!

Как скачивать? · Что такое торрент? · Рейтинг и ограничения

Показать сообщения:    
Ответить на тему

TheTunes.Ru - Лееринг: мощный звук без сложной обработки (2014) скачать торрент (torrent), видеоуроки, тренинги, обучающее видео и видеокурсы

Текущее время: Сегодня 09:36

Часовой пояс: GMT + 4



Вы не можете начинать темы
Вы не можете отвечать на сообщения
Вы не можете редактировать свои сообщения
Вы не можете удалять свои сообщения
Вы не можете голосовать в опросах
Вы не можете прикреплять файлы к сообщениям
Вы не можете скачивать файлы