Сергей Брежнев - Мастер-класс по работе с цветом и тонировке (2014)

Ответить на тему
 
Автор Сообщение

Yulya ®

-Сергей Брежнев - Мастер-класс по работе с цветом и тонировке (2014)- Автор (режиссер): Сергей Брежнев
Жанр: Мастер-класс
Продолжительность: 03:00:39
Качество видео: PCRec
Видеокодек: AVC
Битрейт видео: ~30fps 885kbps
Размер кадра: 1920x944
Аудиокодек: AAC
Битрейт аудио: 44100Hz stereo 189kbps
Описание:
Мастер-класс от профессионального ретушера Сергея Брежнева по работе с цветом и тонировке фотографий.
Как добиться такого же качества обработки фотографий, которые вы видите в журналах? Как с помощью простых инструментов делать блестящие результаты? На какие моменты особо обращать внимание и как ускорить процесс обработки? Все это в новом мастер-классе профессионального ретушера Сергея Брежнева!

Дополнительная информация:

В программе мастер-класса
— raw-конвертация для последующей работы с цветом
— тонировка на этапе raw-конвертации
— цветовой круг (как понимать, как использовать)
— создание объема с помощью цвета — "правильные" цвета на фотографии
— различные способы тонировки
— киношный цвет
— низкий контраст
— работа с зимними фотографиями
— художественная работа с цветом

MI

Общее
Полное имя : D:\Торренты\Mk_Color_Sergretouch.mp4
Формат : MPEG-4
Профиль формата : Base Media / Version 2
Идентификатор кодека : mp42
Размер файла : 1,36 Гбайт
Продолжительность : 3 ч. 0 м.
Режим общего битрейта : Переменный
Общий поток : 1078 Кбит/сек
Название фильма : Мк работа с цветом
Исполнитель : Сергей Брежнев
Жанр : Ретушь
Дата записи : 2014
Дата кодирования : UTC 2014-04-06 18:15:11
Дата пометки : UTC 2014-04-06 18:15:11
Примечание :
Видео
Идентификатор : 1
Формат : AVC
Формат/Информация : Advanced Video Codec
Профиль формата : [url=mailto:Baseline@L4.0]Baseline@L4.0[/url]
Параметр CABAC формата : Нет
Параметр ReFrames формата : 3 кадра
Идентификатор кодека : avc1
Идентификатор кодека/Информация : Advanced Video Coding
Продолжительность : 3 ч. 0 м.
Продолжительность оригинала : 3 ч. 0 м.
Вид битрейта : Переменный
Битрейт : 885 Кбит/сек
Ширина : 1920 пикселей
Высота : 944 пикселя
Соотношение сторон : 2,034
Режим частоты кадров : Переменный
Частота кадров : 30,000 кадров/сек
Минимальная частота кадров : 30,000 кадров/сек
Максимальная частота кадров : 30,030 кадров/сек
Стандарт вещания : NTSC
Цветовое пространство : YUV
Субдискретизация насыщенности : 4:2:0
Битовая глубина : 8 бит
Тип развёртки : Прогрессивная
Бит/(Пиксели*Кадры) : 0.016
Размер потока : 1,12 Гбайт (82%)
Размер потока оригинала : 1,12 Гбайт (82%)
Язык : English
Дата кодирования : UTC 2014-04-06 18:15:14
Дата пометки : UTC 2014-04-06 18:15:14
mdhd_Duration : 10838567
Аудио
Идентификатор : 2
Формат : AAC
Формат/Информация : Advanced Audio Codec
Профиль формата : LC
Идентификатор кодека : 40
Продолжительность : 3 ч. 0 м.
Продолжительность оригинала : 3 ч. 0 м.
Вид битрейта : Переменный
Битрейт : 192 Кбит/сек
Максимальный битрейт : 526 Кбит/сек
Каналы : 2 канала
Расположение каналов : Front: L R
Частота : 44,1 КГц
Метод сжатия : С потерями
Размер потока : 245 Мбайт (18%)
Размер потока оригинала : 245 Мбайт (18%)
Язык : English
Дата кодирования : UTC 2014-04-06 18:15:14
Дата пометки : UTC 2014-04-06 18:15:14
mdhd_Duration : 10838610
Скриншоты:
Скачать .torrent

Для того, чтобы скачать торрент-файл

Сергей Брежнев - Мастер-класс по работе с цветом и тонировке (2014)

с нашего сайта, Вам необходимо Войти на сайт под своим логином! Если у Вас ещё нет логина, тогда Вам нужно сначала Зарегистрироваться!

Как скачивать? · Что такое торрент? · Рейтинг и ограничения

Показать сообщения:    
Ответить на тему

Сергей Брежнев - Мастер-класс по работе с цветом и тонировке (2014) скачать торрент (torrent), видеоуроки, тренинги, обучающее видео и видеокурсы

Текущее время: Сегодня 02:32

Часовой пояс: GMT + 4



Вы не можете начинать темы
Вы не можете отвечать на сообщения
Вы не можете редактировать свои сообщения
Вы не можете удалять свои сообщения
Вы не можете голосовать в опросах
Вы не можете прикреплять файлы к сообщениям
Вы не можете скачивать файлы