Последнее из V.I.P.-раздела

19-Ноя-19 06:59
19-Ноя-19 06:58
19-Ноя-19 06:54
19-Ноя-19 06:49
19-Ноя-19 06:47
19-Ноя-19 06:46
19-Ноя-19 06:37
19-Ноя-19 06:35
19-Ноя-19 06:30
19-Ноя-19 06:25

[profileschool] Дмитрий Шатров - Обработка: что делать с кадром? (2014)

Ответить на тему
 
Автор Сообщение

Yulya ®

-[profileschool] Дмитрий Шатров - Обработка: что делать с кадром? (2014)- Автор (режиссер): profileschool
Жанр: Мастер-класс
Преподаватель: Дмитрий Шатров
Продолжительность: 02:36:46
Качество видео: PCRec
Видеокодек: MPEG4 Video
Битрейт видео: ~25fps 157kbps
Размер кадра: 960x600
Аудиокодек: AAC
Битрейт аудио: 44100Hz stereo 151kbps
Доп. материалы: Имеются
Описание:
Вы сняли хороший кадр? Прекрасно! А что с ним делать дальше? Одно и то же воздействие на изображение можно осуществить десятком различных способов, и ответов на вопрос «Как?» в интернете великое множество.
Нас интересует другой, более важный вопрос: «Что делать с кадром, для чего и почему именно так?». Во время онлайн мастер-класса на примере готовых проектов будут рассмотрены авторские приемы обработки разноплановых кадров (как жанровых, так и природных), даны практические советы и показан полный авторский цикл от исходного RAW до готового TIFF / JPEG. Основной инструментарий рассчитан под Lightroom последних версий.

MI:

Общее
Полное имя : D:\Торренты\frame\Обработка. Что делать с кадром.mp4
Формат : MPEG-4
Профиль формата : Base Media
Идентификатор кодека : isom
Размер файла : 351 Мбайт
Продолжительность : 2 ч. 36 м.
Режим общего битрейта : Переменный
Общий поток : 313 Кбит/сек
Программа кодирования : AVM.EXE
Видео
Идентификатор : 1
Формат : MPEG-4 Visual
Профиль формата : Simple@L1
Параметр BVOP формата : Нет
Параметр QPel формата : Нет
Параметр GMC формата : Без точки перехода
Параметр матрицы формата : Default (H.263)
Идентификатор кодека : 20
Продолжительность : 2 ч. 36 м.
Битрейт : 157 Кбит/сек
Ширина : 960 пикселей
Высота : 600 пикселей
Соотношение сторон : 1,600
Режим частоты кадров : Постоянный
Частота кадров : 25,000 кадров/сек
Цветовое пространство : YUV
Субдискретизация насыщенности : 4:2:0
Битовая глубина : 8 бит
Тип развёртки : Прогрессивная
Метод сжатия : С потерями
Бит/(Пиксели*Кадры) : 0.011
Размер потока : 177 Мбайт (50%)
Библиотека кодирования : Lavc52.72.2
Аудио
Идентификатор : 2
Формат : AAC
Формат/Информация : Advanced Audio Codec
Профиль формата : LC
Идентификатор кодека : 40
Продолжительность : 2 ч. 36 м.
Вид битрейта : Переменный
Битрейт : 152 Кбит/сек
Каналы : 2 канала
Расположение каналов : Front: L R
Частота : 44,1 КГц
Метод сжатия : С потерями
Размер потока : 170 Мбайт (48%)
Скриншоты:
Скачать .torrent

Для того, чтобы скачать торрент-файл

[profileschool] Дмитрий Шатров - Обработка: что делать с кадром? (2014)

с нашего сайта, Вам необходимо Войти на сайт под своим логином! Если у Вас ещё нет логина, тогда Вам нужно сначала Зарегистрироваться!

Как скачивать? · Что такое торрент? · Рейтинг и ограничения

Показать сообщения:    
Ответить на тему

[profileschool] Дмитрий Шатров - Обработка: что делать с кадром? (2014) скачать торрент (torrent), видеоуроки, тренинги, обучающее видео и видеокурсы

Текущее время: Сегодня 11:57

Часовой пояс: GMT + 4



Вы не можете начинать темы
Вы не можете отвечать на сообщения
Вы не можете редактировать свои сообщения
Вы не можете удалять свои сообщения
Вы не можете голосовать в опросах
Вы не можете прикреплять файлы к сообщениям
Вы не можете скачивать файлы