[Profileschool] Алексей Шадрин - Калибровка монитора от А до Я (2014)

Ответить на тему
 
Автор Сообщение

Yulya ®

-[Profileschool] Алексей Шадрин - Калибровка монитора от А до Я (2014)- Автор (режиссер): Алексей Шадрин
Жанр: Обучающее видео
Продолжительность: 01:42:50+01:31:23+04:13:44
Качество видео: PCRec
Видеокодек: AVC (H264)
Битрейт видео: 301kbps + 1237Kbps + 1518Kbps
Размер кадра: 1200*658 и 1200*442
Аудиокодек: AAC
Битрейт аудио: 53kbps
Описание:
Иногда время, потраченное на редактирование и пост-обработку фотографий, оказывается потраченным впустую. Например, если монитор некорректно воспроизводит тени и света, мы получаем заведомо искаженные отпечатки, которыми не можем быть удовлетворены сами, или нелестные отзывы от заказчика, чей монитор настроен иначе. В последнем случае важно оказаться правым и иметь основания считать, что наше изображение соответствует естественным цветам.
О вариантах калибровки монитора написано немало статей и мануалов, которые зачастую противоречат друг другу. Поэтому мы пригласили профессионала высочайшего класса, способного раз и навсегда объяснить принципы калибровки с научных позиций, то есть, дать прочную теоретическую базу и подкрепить ее основательным практикумом, занимающим пять часов от общего времени МК.
На двухдневном онлайн мастер-классе мы подробно разберем нюансы калибровки, оборудование и программное обеспечение, правила организации рабочего места цветокорректора и весь обширный спектр вопросов, ясность в которых даст возможность профессионально решать приоритетную задачу всякого фотографа: максимально точно передавать визуальные смыслы с помощью изображений.

Программа курса:

ЗАНЯТИЕ 1
Теория. 1 час
● Монитор как устройство первичной визуализации цифровых файлов изображений.
● Биофизическая сущность захвата и визуализации.
● Закон Грассмана.
● Колориметрическая настройка монитора как эквивалент настройки музыкального инструмента. Цифровой файл = ноты.
● Биофизический смысл калибровки монитора.
● LUT видеокарты.
● Работа на некалиброванном мониторе как попытка играть на ненастроенной гитаре.
● Организация рабочего места цветокорректора, принципы и правила.
● Междунарожный стандарт ISO 3664:2009.
● Монитор и дисплей, разница между ними.
● Дисплей как компонент монитора.
● Видеосистема.
● Адаптация зрения и ее учет.
● Опорный белый свет.
● Коррелированная цветовая температура.
● Диапазон адаптации.
● Калибровка и характеризация монитора.
● Калибровка как мероприятие по приведению видеосистемы в заданное состояние.
● Характеризация как математическое описание (паспортизация) калиброванного монитора.
● Миф о самодостаточности заводской калибровки.
● Миф о необходимости перекалибровки каждую неделю.
Практика и ответы на вопросы. 2 часа
● Измерение характеристик опорного белого света.
● Принципиальные ошибки, заложенные в работу калибровочных программ.
● Правило +1000 К.
● Целевые параметры калибровки.
● Оборудование и программное обеспечение.
● Фотоэлектрические колориметры и спектрофотометры.
○ ProfileMaker 5 и i1Profiler.
○ ProfileMaker 5 как программа для демонстрации и обучения.
● i1Profiler как программа для работы.
● Собственно калибровка (на примере ProfileMaker 5).
● Характеризация (построение профайла) на примере ProfileMaker 5.
● i1Profiler – калибровка и характеризация в одном флаконе, и путаница из-за этого.
ЗАНЯТИЕ 2
Практика и ответы на вопросы. 2 часа
● Критерии качества калибровки и характеризации.
● Принцип Эванса.
● Разбор теней и светов.
● Тестовое изображение.
● Принципы и правила создания тестового изображения.
● Валидаторы калибровки и их бесполезность.
Практические рекомендации. 1 час
● Отладка CMS различных программ.
● Выбор модели монитора для цветокоррекции
● Правила поведения в момент покупки монитора и критерии отбора.

MediaInfo

General
Complete name : G:\Алексей Шадрин - Калибровка монитора от А до Я (2014)\Day1.p1.mp4
Format : MPEG-4
Format profile : Base Media / Version 2
Codec ID : mp42
File size : 222 MiB
Duration : 1h 42mn
Overall bit rate : 301 Kbps
Encoded date : UTC 2014-09-10 15:40:51
Tagged date : UTC 2014-09-10 15:40:51
Video
ID : 1
Format : AVC
Format/Info : Advanced Video Codec
Format profile : [url=mailto:High@L4.0]High@L4.0[/url]
Format settings, CABAC : Yes
Format settings, ReFrames : 4 frames
Format settings, GOP : M=1, N=75
Codec ID : avc1
Codec ID/Info : Advanced Video Coding
Duration : 1h 42mn
Source duration : 1h 42mn
Bit rate : 246 Kbps
Width : 1 200 pixels
Height : 658 pixels
Display aspect ratio : 1.85:1
Frame rate mode : Constant
Frame rate : 15.000 fps
Color space : YUV
Chroma subsampling : 4:2:0
Bit depth : 8 bits
Scan type : Progressive
Bits/(Pixel*Frame) : 0.021
Stream size : 181 MiB (82%)
Source stream size : 181 MiB (82%)
Language : English
Encoded date : UTC 2014-09-10 15:40:51
Tagged date : UTC 2014-09-10 15:40:51
Color primaries : BT.709
Transfer characteristics : BT.709
Matrix coefficients : BT.709
mdhd_Duration : 6175927
Audio
ID : 2
Format : AAC
Format/Info : Advanced Audio Codec
Format profile : LC
Codec ID : 40
Duration : 1h 42mn
Source duration : 1h 42mn
Bit rate mode : Constant
Bit rate : 53.2 Kbps
Channel count : 2 channels
Channel positions : Front: L R
Sampling rate : 44.1 KHz
Compression mode : Lossy
Stream size : 39.2 MiB (18%)
Source stream size : 39.2 MiB (18%)
Language : English
Encoded date : UTC 2014-09-10 15:40:51
Tagged date : UTC 2014-09-10 15:40:51
mdhd_Duration : 6184993
General
Complete name : G:\Алексей Шадрин - Калибровка монитора от А до Я (2014)\Day1.p2.mp4
Format : MPEG-4
Format profile : Base Media / Version 2
Codec ID : mp42
File size : 808 MiB
Duration : 1h 31mn
Overall bit rate : 1 237 Kbps
Encoded date : UTC 2014-09-11 13:43:46
Tagged date : UTC 2014-09-11 13:43:46
Video
ID : 1
Format : AVC
Format/Info : Advanced Video Codec
Format profile : [url=mailto:High@L4.0]High@L4.0[/url]
Format settings, CABAC : Yes
Format settings, ReFrames : 4 frames
Format settings, GOP : M=1, N=75
Codec ID : avc1
Codec ID/Info : Advanced Video Coding
Duration : 1h 31mn
Source duration : 1h 31mn
Bit rate : 1 182 Kbps
Width : 1 200 pixels
Height : 442 pixels
Display aspect ratio : 2.715
Frame rate mode : Constant
Frame rate : 15.000 fps
Color space : YUV
Chroma subsampling : 4:2:0
Bit depth : 8 bits
Scan type : Progressive
Bits/(Pixel*Frame) : 0.149
Stream size : 772 MiB (96%)
Source stream size : 772 MiB (96%)
Language : English
Encoded date : UTC 2014-09-11 13:43:46
Tagged date : UTC 2014-09-11 13:43:46
Color primaries : BT.709
Transfer characteristics : BT.709
Matrix coefficients : BT.709
mdhd_Duration : 5486780
Audio
ID : 2
Format : AAC
Format/Info : Advanced Audio Codec
Format profile : LC
Codec ID : 40
Duration : 1h 31mn
Source duration : 1h 31mn
Bit rate mode : Constant
Bit rate : 52.8 Kbps
Channel count : 2 channels
Channel positions : Front: L R
Sampling rate : 44.1 KHz
Compression mode : Lossy
Stream size : 34.6 MiB (4%)
Source stream size : 34.6 MiB (4%)
Language : English
Encoded date : UTC 2014-09-11 13:43:46
Tagged date : UTC 2014-09-11 13:43:46
mdhd_Duration : 5491806
General
Complete name : G:\Алексей Шадрин - Калибровка монитора от А до Я (2014)\Day2.mp4
Format : MPEG-4
Format profile : Base Media / Version 2
Codec ID : mp42
File size : 2.69 GiB
Duration : 4h 13mn
Overall bit rate : 1 518 Kbps
Encoded date : UTC 2014-09-12 14:30:56
Tagged date : UTC 2014-09-12 14:30:56
Video
ID : 1
Format : AVC
Format/Info : Advanced Video Codec
Format profile : [url=mailto:High@L4.0]High@L4.0[/url]
Format settings, CABAC : Yes
Format settings, ReFrames : 4 frames
Codec ID : avc1
Codec ID/Info : Advanced Video Coding
Duration : 4h 13mn
Source duration : 4h 13mn
Bit rate : 1 463 Kbps
Width : 1 280 pixels
Height : 468 pixels
Display aspect ratio : 2.735
Frame rate mode : Constant
Frame rate : 15.000 fps
Color space : YUV
Chroma subsampling : 4:2:0
Bit depth : 8 bits
Scan type : Progressive
Bits/(Pixel*Frame) : 0.163
Stream size : 2.59 GiB (96%)
Source stream size : 2.59 GiB (96%)
Language : English
Encoded date : UTC 2014-09-12 14:30:56
Tagged date : UTC 2014-09-12 14:30:56
Color primaries : BT.709
Transfer characteristics : BT.709
Matrix coefficients : BT.709
mdhd_Duration : 15209343
Audio
ID : 2
Format : AAC
Format/Info : Advanced Audio Codec
Format profile : LC
Codec ID : 40
Duration : 4h 13mn
Source duration : 4h 13mn
Bit rate mode : Constant
Bit rate : 53.1 Kbps
Channel count : 2 channels
Channel positions : Front: L R
Sampling rate : 44.1 KHz
Compression mode : Lossy
Stream size : 97.0 MiB (4%)
Source stream size : 97.0 MiB (4%)
Language : English
Encoded date : UTC 2014-09-12 14:30:56
Tagged date : UTC 2014-09-12 14:30:56
mdhd_Duration : 15323907
Скриншоты:
Скачать .torrent

Для того, чтобы скачать торрент-файл

[Profileschool] Алексей Шадрин - Калибровка монитора от А до Я (2014)

с нашего сайта, Вам необходимо Войти на сайт под своим логином! Если у Вас ещё нет логина, тогда Вам нужно сначала Зарегистрироваться!

Как скачивать? · Что такое торрент? · Рейтинг и ограничения

Yerzhan

Спасибо автору за релиз!
Показать сообщения:    
Ответить на тему

[Profileschool] Алексей Шадрин - Калибровка монитора от А до Я (2014) скачать торрент (torrent), видеоуроки, тренинги, обучающее видео и видеокурсы

Текущее время: Сегодня 01:54

Часовой пояс: GMT + 4



Вы не можете начинать темы
Вы не можете отвечать на сообщения
Вы не можете редактировать свои сообщения
Вы не можете удалять свои сообщения
Вы не можете голосовать в опросах
Вы не можете прикреплять файлы к сообщениям
Вы не можете скачивать файлы