Александр Талюка - Классические приемы съемки ню в студии (2014)

Ответить на тему
 
Автор Сообщение

Yulya ®

-Александр Талюка - Классические приемы съемки ню в студии (2014)- Автор (режиссер): Александр Талюка
Жанр: Обучающее видео
Продолжительность: 03:03:46
Качество видео: WEB-DL
Видеокодек: MPEG4 Video (H264)
Битрейт видео: ~15fps 1697kbps
Размер кадра: 1280x500
Аудиокодек: AAC
Битрейт аудио: 44100Hz stereo 53kbps
Описание:
На этом мастер-классе мы расскажем и покажем, как технически правильно рисовать светом на обнаженной натуре.
Разберем основные приемы моделирования светом, технику создания пространства в кадре и эстетику линий тела модели.
Изучим классические световые схемы, применимые для жанра ню, которые вы сможете реализовать в любой студии.
Вы увидите в живую, как происходит работа с моделью, с подробными комментариями об удачной и неудачной
постановке позы и часто допускаемых ошибках. Данный мастер-класс позволит чувствовать себя увереннее
в съемке ню в студии тем, кто только начинает осваивать этот жанр, а опытные фотографы смогут найти
для себя интересные световые решения и дополнить свой арсенал новыми техниками и авторскими приемами съемки.

MediaInfo

General
Complete name : E:\Торрент\МК Классические приемы съемки ню - Талюка Александр - Profoleschool\НЮ студия.mp4
Format : MPEG-4
Format profile : Base Media / Version 2
Codec ID : mp42
File size : 2.25 GiB
Duration : 3h 3mn
Overall bit rate : 1 753 Kbps
Encoded date : UTC 2014-05-21 14:06:04
Tagged date : UTC 2014-05-21 14:06:04
Video
ID : 1
Format : AVC
Format/Info : Advanced Video Codec
Format profile : [url=mailto:High@L4.0]High@L4.0[/url]
Format settings, CABAC : Yes
Format settings, ReFrames : 4 frames
Codec ID : avc1
Codec ID/Info : Advanced Video Coding
Duration : 3h 3mn
Source duration : 3h 3mn
Bit rate : 1 698 Kbps
Width : 1 280 pixels
Height : 500 pixels
Display aspect ratio : 2.560
Frame rate mode : Constant
Frame rate : 15.000 fps
Color space : YUV
Chroma subsampling : 4:2:0
Bit depth : 8 bits
Scan type : Progressive
Bits/(Pixel*Frame) : 0.177
Stream size : 2.18 GiB (97%)
Source stream size : 2.18 GiB (97%)
Language : English
Encoded date : UTC 2014-05-21 14:06:04
Tagged date : UTC 2014-05-21 14:06:04
Color primaries : BT.709
Transfer characteristics : BT.709
Matrix coefficients : BT.709
mdhd_Duration : 11027808
Audio
ID : 2
Format : AAC
Format/Info : Advanced Audio Codec
Format profile : LC
Codec ID : 40
Duration : 3h 3mn
Source duration : 3h 3mn
Bit rate mode : Constant
Bit rate : 52.8 Kbps
Channel(s) : 2 channels
Channel positions : Front: L R
Sampling rate : 44.1 KHz
Compression mode : Lossy
Stream size : 69.8 MiB (3%)
Source stream size : 69.8 MiB (3%)
Language : English
Encoded date : UTC 2014-05-21 14:06:04
Tagged date : UTC 2014-05-21 14:06:04
mdhd_Duration : 11086642
Скриншоты:
Скачать .torrent

Для того, чтобы скачать торрент-файл

Александр Талюка - Классические приемы съемки ню в студии (2014)

с нашего сайта, Вам необходимо Войти на сайт под своим логином! Если у Вас ещё нет логина, тогда Вам нужно сначала Зарегистрироваться!

Как скачивать? · Что такое торрент? · Рейтинг и ограничения

Показать сообщения:    
Ответить на тему

Александр Талюка - Классические приемы съемки ню в студии (2014) скачать торрент (torrent), видеоуроки, тренинги, обучающее видео и видеокурсы

Текущее время: Сегодня 03:20

Часовой пояс: GMT + 4



Вы не можете начинать темы
Вы не можете отвечать на сообщения
Вы не можете редактировать свои сообщения
Вы не можете удалять свои сообщения
Вы не можете голосовать в опросах
Вы не можете прикреплять файлы к сообщениям
Вы не можете скачивать файлы