[Profileschool] Александр Свет - МК Профессиональная работа со вспышкой (2013)

Ответить на тему
 
Автор Сообщение

Yulya ®

-[Profileschool] Александр Свет | МК Профессиональная работа со вспышкой (2013) PCRec- Автор (режиссер): Александр Свет
Жанр: Обучающее видео
Продолжительность: 01:34:59+01:22:57
Качество видео: PCRec
Видеокодек: VC-1/WMV
Битрейт видео: ~6000kb/s
Размер кадра: 1280*800
Аудиокодек: WMA
Битрейт аудио: 32kb/s
Описание:
На мастер-классе Александра Света вы узнаете все — от основ работы со вспышкой, выбора насадок и аксессуаров до сложной съемки с группой вспышек и цветными фильтрами, увидите, как эффективно отражать и перенаправлять свет от вспышки, чтобы избежать “плоской” картинки и полностью контролировать освещение в кадре. А так же вы откроете для себя авторские, профессиональными приемы работы со вспышками.

MediaInfo

General
Complete name : H:\tutorials\profileschool.ru\Александр Свет - МК Профессиональная работа со вспышкой (2013)\part1.wmv
Format : Windows Media
File size : 786 MiB
Duration : 1h 34mn
Overall bit rate mode : Constant
Overall bit rate : 1 157 Kbps
Maximum Overall bit rate : 6 077 Kbps
Encoded date : UTC 2014-02-02 04:07:37.310
Video
ID : 1
Format : VC-1
Format profile : MP@HL
Codec ID : WMV3
Codec ID/Info : Windows Media Video 9
Codec ID/Hint : WMV3
Description of the codec : Windows Media Video 9 - Professional
Duration : 1h 34mn
Bit rate mode : Constant
Bit rate : 6 000 Kbps
Width : 1 280 pixels
Height : 800 pixels
Display aspect ratio : 16:10
Frame rate : 6.000 fps
Color space : YUV
Chroma subsampling : 4:2:0
Bit depth : 8 bits
Scan type : Progressive
Compression mode : Lossy
Bits/(Pixel*Frame) : 0.977
Stream size : 3.98 GiB
Language : Russian
Audio
ID : 2
Format : WMA
Format version : Version 2
Codec ID : 161
Codec ID/Info : Windows Media Audio
Description of the codec : Windows Media Audio 9.2 - 32 kbps, 22 kHz, stereo 1-pass CBR
Duration : 1h 34mn
Bit rate mode : Constant
Bit rate : 32.0 Kbps
Channel count : 2 channels
Sampling rate : 22.05 KHz
Bit depth : 16 bits
Stream size : 21.8 MiB (3%)
Language : Russian
General
Complete name : H:\tutorials\profileschool.ru\Александр Свет - МК Профессиональная работа со вспышкой (2013)\part2.wmv
Format : Windows Media
File size : 660 MiB
Duration : 1h 22mn
Overall bit rate mode : Constant
Overall bit rate : 1 112 Kbps
Maximum Overall bit rate : 6 077 Kbps
Encoded date : UTC 2014-02-02 12:39:15.593
Video
ID : 1
Format : VC-1
Format profile : MP@HL
Codec ID : WMV3
Codec ID/Info : Windows Media Video 9
Codec ID/Hint : WMV3
Description of the codec : Windows Media Video 9 - Professional
Duration : 1h 22mn
Bit rate mode : Constant
Bit rate : 6 000 Kbps
Width : 1 280 pixels
Height : 800 pixels
Display aspect ratio : 16:10
Frame rate : 6.000 fps
Color space : YUV
Chroma subsampling : 4:2:0
Bit depth : 8 bits
Scan type : Progressive
Compression mode : Lossy
Bits/(Pixel*Frame) : 0.977
Stream size : 3.48 GiB
Language : Russian
Audio
ID : 2
Format : WMA
Format version : Version 2
Codec ID : 161
Codec ID/Info : Windows Media Audio
Description of the codec : Windows Media Audio 9.2 - 32 kbps, 22 kHz, stereo 1-pass CBR
Duration : 1h 22mn
Bit rate mode : Constant
Bit rate : 32.0 Kbps
Channel count : 2 channels
Sampling rate : 22.05 KHz
Bit depth : 16 bits
Stream size : 19.0 MiB (3%)
Language : Russian
Скриншоты:
Скачать .torrent

Для того, чтобы скачать торрент-файл

[Profileschool] Александр Свет - МК Профессиональная работа со вспышкой (2013)

с нашего сайта, Вам необходимо Войти на сайт под своим логином! Если у Вас ещё нет логина, тогда Вам нужно сначала Зарегистрироваться!

Как скачивать? · Что такое торрент? · Рейтинг и ограничения

Показать сообщения:    
Ответить на тему

[Profileschool] Александр Свет - МК Профессиональная работа со вспышкой (2013) скачать торрент (torrent), видеоуроки, тренинги, обучающее видео и видеокурсы

Текущее время: Сегодня 02:46

Часовой пояс: GMT + 4



Вы не можете начинать темы
Вы не можете отвечать на сообщения
Вы не можете редактировать свои сообщения
Вы не можете удалять свои сообщения
Вы не можете голосовать в опросах
Вы не можете прикреплять файлы к сообщениям
Вы не можете скачивать файлы