Екатерина Нечипоренко - MS Excel 2013. Продвинутый курс (2014)

Ответить на тему
 
Автор Сообщение

Yulya ®

-Екатерина Нечипоренко - MS Excel 2013. Продвинутый курс (2014)- Автор (режиссер): Екатерина Нечипоренко
Жанр: Обучающие видео-уроки
Продолжительность: 04:11:02
Качество видео: PCRec
Видеокодек: AVC
Битрейт видео: ~134 - 691 kb/s
Размер кадра: 1280x720
Аудиокодек: AAC
Битрейт аудио: 42,9 - 60,3 kb/s, 2 Ch
Доп. материалы: Нет
Описание:
Главная цель курса:
Превратить Excel в простой и понятный рабочий инструмент, с помощью которого Вы сможете экономить время и решать множество реальных задач.
В этом курсе Вы узнаете:
Как защищать данные в таблицах.
Как работать с картинками и прочими графическими объектами.
Как вставлять результаты вычислений в графические объекты.
Как создавать и настраивать диаграммы.
Как сортировать и фильтровать данные.
Как добавлять промежуточные итоги.
Как профессионально использовать функцию ЕСЛИ.
Как форматировать ячейки в зависимости от данных в них.
Что такое мгновенное заполнение и как им пользоваться.

Содержание:

Вступление:
1. Вступление
2. Как устроен этот курс
Продвинутое форматирование:
3. Использование тем
4. Добавление примечаний
5. Создание списков быстрого заполнения
6. Форматирование в виде таблицы
Защита данных:
7. Защита данных на листе
8. Частичная защита данных
9. Защита паролем всей книги
Графические объекты:
10. Добавление картинок
11. SmartArt
12. Фигуры
13. Форматирование графических объектов
14. Порядок графических объектов
15. Группировка объектов
16. Использование объектов совместно с математическими вычислениями
Диаграммы:
17. Рекомендуемые диаграммы
18. Создание диаграмм: два метода
19. Форматирование диаграмм с помощью специальных иконок
20. Изменение типа диаграммы
21. Форматирование элементов диаграммы
22. Добавление линий тренда
23. Круговые диаграммы
24. Спарклайны - минидиаграммы
Использование Excel в качества базы данных:
25. Фиксация строк и столбцов
26. Фиксация строк и столбцов при печати
27. Сортировка данных
28. Использование фильтров для отбора данных
29. Удаление дублирующихся записей
30. Добавление промежуточных итогов
31. Текст по столбцам: варианты использования инструмента
32. Получение данных с веб-страницы
Продвинутое использование формул:
33. Функция ЕСЛИ
34. Использование ЕСЛИ для работы с ошибками
35. Функция ЕСЛИОШИБКА
36. Вложенные функции ЕСЛИ
37. Использование оператора И совместно с ЕСЛИ
38. Использование оператора ИЛИ совместно с ЕСЛИ
39. Использование оператора НЕ совместно с И и ИЛИ
40. РАЗНДАТ - спрятанная функция
41. Функции для работы с текстом
42. Функция ТЕКСТ для форматирования чисел и дат
43. Функции для работы с датами
44. Функции СЧЁТЕСЛИ, СРЗНАЧЕСЛИ и СУММЕСЛИ
45. СУММЕСЛИ для выборочного суммирования
46. СЧЁТЕСЛИ для выборочного подсчёта
47. Определение ранга в множестве занчений
48. Мгновенное заполнение
Условное форматирование:
49. Форматирование ячейки в зависимости от её содержимого
50. Вставка небольших диаграмм, цветовых индикаторов и иконок в ячейку
51. Форматирование на основе отбора первых и последних значений
52. Создание правил форматирования с нуля
53. Управления правилами форматирования

MediaInfo:

Код:
Общее
Полное имя                               : C:\MS Excel 2013. Продвинутый курс - 2014\01. Введение.mp4
Формат                                   : MPEG-4
Профиль формата                          : Base Media
Идентификатор кодека                     : isom
Размер файла                             : 4,86 Мбайт
Продолжительность                        : 3 м. 31 с.
Режим общего битрейта                    : Переменный
Общий поток                              : 192 Кбит/сек
Дата кодирования                         : UTC 2014-05-16 21:24:04
Дата пометки                             : UTC 2014-05-16 21:24:04
Видео
Идентификатор                            : 1
Формат                                   : AVC
Формат/Информация                        : Advanced Video Codec
Профиль формата                          : [url=mailto:Baseline@L3.1]Baseline@L3.1[/url]
Параметр CABAC формата                   : Нет
Параметр ReFrames формата                : 3 кадра
Параметр GOP формата                     : M=1, N=75
Идентификатор кодека                     : avc1
Идентификатор кодека/Информация          : Advanced Video Coding
Продолжительность                        : 3 м. 31 с.
Битрейт                                  : 134 Кбит/сек
Максимальный битрейт                     : 1914 Кбит/сек
Ширина                                   : 1280 пикселей
Высота                                   : 720 пикселей
Соотношение сторон                       : 16:9
Режим частоты кадров                     : Постоянный
Частота кадров                           : 15,000 кадров/сек
Цветовое пространство                    : YUV
Субдискретизация насыщенности            : 4:2:0
Битовая глубина                          : 8 бит
Тип развёртки                            : Прогрессивная
Бит/(Пиксели*Кадры)                      : 0.010
Размер потока                            : 3,39 Мбайт (70%)
Библиотека кодирования                   : Zencoder Video Encoding System
Дата кодирования                         : UTC 2014-05-16 21:23:53
Дата пометки                             : UTC 2014-05-16 21:24:04
Аудио
Идентификатор                            : 2
Формат                                   : AAC
Формат/Информация                        : Advanced Audio Codec
Профиль формата                          : LC
Идентификатор кодека                     : 40
Продолжительность                        : 3 м. 31 с.
Вид битрейта                             : Переменный
Битрейт                                  : 55,8 Кбит/сек
Максимальный битрейт                     : 71,3 Кбит/сек
Каналы                                   : 2 канала
Расположение каналов                     : Front: L R
Частота                                  : 44,1 КГц
Метод сжатия                             : С потерями
Размер потока                            : 1,41 Мбайт (29%)
Дата кодирования                         : UTC 2014-05-16 21:24:04
Дата пометки                             : UTC 2014-05-16 21:24:04
Код:
Общее
Полное имя                               : C:\MS Excel 2013. Продвинутый курс - 2014\25. Фиксация строк и столбцов.mp4
Формат                                   : MPEG-4
Профиль формата                          : Base Media
Идентификатор кодека                     : isom
Размер файла                             : 25,4 Мбайт
Продолжительность                        : 4 м. 44 с.
Режим общего битрейта                    : Переменный
Общий поток                              : 749 Кбит/сек
Дата кодирования                         : UTC 2014-05-08 12:47:46
Дата пометки                             : UTC 2014-05-08 12:47:46
Видео
Идентификатор                            : 1
Формат                                   : AVC
Формат/Информация                        : Advanced Video Codec
Профиль формата                          : [url=mailto:Baseline@L3.1]Baseline@L3.1[/url]
Параметр CABAC формата                   : Нет
Параметр ReFrames формата                : 3 кадра
Параметр GOP формата                     : M=1, N=75
Идентификатор кодека                     : avc1
Идентификатор кодека/Информация          : Advanced Video Coding
Продолжительность                        : 4 м. 44 с.
Битрейт                                  : 691 Кбит/сек
Максимальный битрейт                     : 5943 Кбит/сек
Ширина                                   : 1280 пикселей
Высота                                   : 720 пикселей
Соотношение сторон                       : 16:9
Режим частоты кадров                     : Постоянный
Частота кадров                           : 15,000 кадров/сек
Цветовое пространство                    : YUV
Субдискретизация насыщенности            : 4:2:0
Битовая глубина                          : 8 бит
Тип развёртки                            : Прогрессивная
Бит/(Пиксели*Кадры)                      : 0.050
Размер потока                            : 23,5 Мбайт (92%)
Библиотека кодирования                   : Zencoder Video Encoding System
Дата кодирования                         : UTC 2014-05-08 12:47:16
Дата пометки                             : UTC 2014-05-08 12:47:47
Аудио
Идентификатор                            : 2
Формат                                   : AAC
Формат/Информация                        : Advanced Audio Codec
Профиль формата                          : LC
Идентификатор кодека                     : 40
Продолжительность                        : 4 м. 44 с.
Вид битрейта                             : Переменный
Битрейт                                  : 56,5 Кбит/сек
Максимальный битрейт                     : 85,1 Кбит/сек
Каналы                                   : 2 канала
Расположение каналов                     : Front: L R
Частота                                  : 44,1 КГц
Метод сжатия                             : С потерями
Размер потока                            : 1,92 Мбайт (8%)
Дата кодирования                         : UTC 2014-05-08 12:47:47
Дата пометки                             : UTC 2014-05-08 12:47:47
Скриншоты:
Скачать .torrent

Для того, чтобы скачать торрент-файл

Екатерина Нечипоренко - MS Excel 2013. Продвинутый курс (2014)

с нашего сайта, Вам необходимо Войти на сайт под своим логином! Если у Вас ещё нет логина, тогда Вам нужно сначала Зарегистрироваться!

Как скачивать? · Что такое торрент? · Рейтинг и ограничения

Показать сообщения:    
Ответить на тему

Екатерина Нечипоренко - MS Excel 2013. Продвинутый курс (2014) скачать торрент (torrent), видеоуроки, тренинги, обучающее видео и видеокурсы

Текущее время: Сегодня 06:26

Часовой пояс: GMT + 4



Вы не можете начинать темы
Вы не можете отвечать на сообщения
Вы не можете редактировать свои сообщения
Вы не можете удалять свои сообщения
Вы не можете голосовать в опросах
Вы не можете прикреплять файлы к сообщениям
Вы не можете скачивать файлы