Seelentera - Ajax vs Node.JS (2014)

Ответить на тему
 
Автор Сообщение

Yulya ®

-Seelentera | Ajax vs Node.JS (2014) PCRec- Автор (режиссер): Seelentera
Жанр: Обучающее видео
Язык: Русский
Продолжительность: 01.34.41
Качество видео: PCRec
Видеокодек: H.264
Битрейт видео: ~593 kb/s, 30 FPS
Размер кадра: 1280 x 720
Аудиокодек: AAC
Битрейт аудио: 100 kb/s (CBR), 2 Ch, 44100 Hz
Описание:
Курс Ajax vs Node.JS от учебного центра Seelentera Курс Ajax vs Node.JS научит вас создавать свой собственный чат, используя jQuery Ajax и Node.JS.

Cодержание:

Урок 1. Проектирование
Урок 2. Ajax
Урок 3. Ajax II
Урок 4. Основы Node.JS
Урок 5. HTTP Сервер Node.JS
Урок 6. Socket.IO
Урок 7. Чат
Скриншоты:

MediaInfo:

Общее
Полное имя : Урок 1. Проектирование.flv
Формат : Flash Video
Размер файла : 79,8 Мбайт
Продолжительность : 15 м.
Общий поток : 718 Кбит/сек
Программа кодирования : Wistia
Пометившая программа : Yet Another Metadata Injector for FLV - Version 1.8
Видео
Формат : AVC
Формат/Информация : Advanced Video Codec
Профиль формата : [url=mailto:High@L3.1]High@L3.1[/url]
Параметр CABAC формата : Да
Параметр ReFrames формата : 3 кадра
Идентификатор кодека : 7
Продолжительность : 15 м.
Битрейт : 593 Кбит/сек
Номинальный битрейт : 2500 Кбит/сек
Ширина : 1280 пикселей
Высота : 720 пикселей
Соотношение сторон : 16:9
Режим частоты кадров : Постоянный
Частота кадров : 30,000 кадров/сек
Цветовое пространство : YUV
Субдискретизация насыщенности : 4:2:0
Битовая глубина : 8 бит
Тип развёртки : Прогрессивная
Бит/(Пиксели*Кадры) : 0.021
Размер потока : 67,7 Мбайт (85%)
Библиотека кодирования : x264 core 122
Настройки программы : cabac=1 / ref=3 / deblock=1:0:0 / analyse=0x3:0x113 / me=hex / subme=7 / psy=0 / mixed_ref=1 / me_range=16 / chroma_me=1 / trellis=1 / 8x8dct=1 / cqm=0 / deadzone=21,11 / fast_pskip=1 / chroma_qp_offset=0 / threads=4 / sliced_threads=0 / nr=0 / decimate=1 / interlaced=0 / bluray_compat=0 / constrained_intra=0 / bframes=3 / b_pyramid=0 / b_adapt=1 / b_bias=0 / direct=1 / weightb=1 / open_gop=0 / weightp=2 / keyint=120 / keyint_min=25 / scenecut=40 / intra_refresh=0 / rc_lookahead=40 / rc=2pass / mbtree=1 / bitrate=2500 / ratetol=1.0 / qcomp=0.60 / qpmin=10 / qpmax=51 / qpstep=4 / cplxblur=20.0 / qblur=0.5 / ip_ratio=1.40 / aq=1:1.00
Аудио
Формат : AAC
Формат/Информация : Advanced Audio Codec
Профиль формата : LC
Идентификатор кодека : 10
Продолжительность : 15 м.
Битрейт : 100 Кбит/сек
Каналы : 2 канала
Расположение каналов : Front: L R
Частота : 44,1 КГц
Метод сжатия : С потерями
Задержка видео : 33 мс.
Размер потока : 11,8 Мбайт (15%)
Скачать .torrent

Для того, чтобы скачать торрент-файл

Seelentera - Ajax vs Node.JS (2014)

с нашего сайта, Вам необходимо Войти на сайт под своим логином! Если у Вас ещё нет логина, тогда Вам нужно сначала Зарегистрироваться!

Как скачивать? · Что такое торрент? · Рейтинг и ограничения

Показать сообщения:    
Ответить на тему

Seelentera - Ajax vs Node.JS (2014) скачать торрент (torrent), видеоуроки, тренинги, обучающее видео и видеокурсы

Текущее время: Сегодня 12:40

Часовой пояс: GMT + 4



Вы не можете начинать темы
Вы не можете отвечать на сообщения
Вы не можете редактировать свои сообщения
Вы не можете удалять свои сообщения
Вы не можете голосовать в опросах
Вы не можете прикреплять файлы к сообщениям
Вы не можете скачивать файлы