[Profileschool] Дмитрий Ларионов - Adobe Premiere Pro. Базовый уровень (2014)

Ответить на тему
 
Автор Сообщение

Yulya ®

-[Profileschool] Дмитрий Ларионов - Adobe Premiere Pro. Базовый уровень (2014)- Автор (режиссер): Дмитрий Ларионов
Жанр: Обучающее видео
Продолжительность: 10 видео по ~02:20:00
Качество видео: PCRec
Видеокодек: H.264
Битрейт видео: ~400 kbps
Размер кадра: ~ 1096*684
Аудиокодек: AAC
Битрейт аудио: переменный ~192Kbps
Описание:
В рамках онлайн курса вы познакомитесь с программой для видео-монтажа Adobe Premiere Pro CC 2014, которая удачно сочетает легкость изучения с мощностью инструментов и гибкостью системы. Преимущества курса в том, что он базируется на программе обучения, успешно проверенной на практике в течение последних трех лет и в то же время учитывающей все самые "свежие" новинки и функции, постоянно появляющиеся в Premiere Pro. Вы научитесь разбираться в кодеках, форматах, частотах кадров и многих других необходимых технологических нюансах. Вы освоите базовый рабочий процесс видео-монтажа от отбора и каталогизации видео до экспорта готового продукта.
Приготовьтесь не только к овладению инструментами, а к пониманию тонкостей работы с видео: вы пройдете увлекательный путь до мастерства незаметного монтажа, осознаете, как он влияет на смысл истории, научитесь разворачивать событийную канву в разные стороны исключительно монтажными инструментами, создавать нужные акценты. Как следствие, вы сможете делать качественное видео для себя, или, при желании, пойти дальше и стать серьезным профессионалом в кино или телевидении.

Чему вы научитесь?

Импортировать и организовывать отснятый материал.
Выкладывать законченную историю на таймлинии.
Монтировать жанровые ролики, диалоги, сцены погони.
Применять базовые эффекты.
Работать со звуком (музыка, шумы, закадровый текст).
Создавать и анимировать простые титры (плашка, "барабан", бегущая строка).
Настраивать монтажную программу под себя.
Ускорять и замедлять видео и аудио.
Экспортировать готовый ролик в различных форматах (YouTube, Vimeo).

MediaInfo

General
Complete name : G:\Дмитрий Ларионов - Adobe Premiere Pro CC - Базовый уровень (2014)\Занятие 1\Занятие 1.mp4
Format : MPEG-4
Format profile : Base Media / Version 2
Codec ID : mp42
File size : 551 MiB
Duration : 2h 22mn
Overall bit rate mode : Variable
Overall bit rate : 541 Kbps
Movie name : premierebase1
Encoded date : UTC 2014-08-21 15:31:01
Tagged date : UTC 2014-08-21 15:31:01
Video
ID : 1
Format : AVC
Format/Info : Advanced Video Codec
Format profile : [url=mailto:Baseline@L3.1]Baseline@L3.1[/url]
Format settings, CABAC : No
Format settings, ReFrames : 3 frames
Format settings, GOP : M=1, N=75
Codec ID : avc1
Codec ID/Info : Advanced Video Coding
Duration : 2h 22mn
Bit rate : 413 Kbps
Width : 1 096 pixels
Height : 684 pixels
Display aspect ratio : 16:10
Frame rate mode : Constant
Frame rate : 15.000 fps
Color space : YUV
Chroma subsampling : 4:2:0
Bit depth : 8 bits
Scan type : Progressive
Bits/(Pixel*Frame) : 0.037
Stream size : 421 MiB (76%)
Language : English
Encoded date : UTC 2014-08-21 15:31:01
Tagged date : UTC 2014-08-21 15:31:01
Audio
ID : 2
Format : AAC
Format/Info : Advanced Audio Codec
Format profile : LC
Codec ID : 40
Duration : 2h 22mn
Bit rate mode : Variable
Bit rate : 126 Kbps
Maximum bit rate : 260 Kbps
Channel count : 2 channels
Channel positions : Front: L R
Sampling rate : 44.1 KHz
Compression mode : Lossy
Stream size : 128 MiB (23%)
Language : English
Encoded date : UTC 2014-08-21 15:31:01
Tagged date : UTC 2014-08-21 15:31:01
General
Complete name : G:\Дмитрий Ларионов - Adobe Premiere Pro CC - Базовый уровень (2014)\Занятие 2\Занятие 2.mp4
Format : MPEG-4
Format profile : Base Media / Version 2
Codec ID : mp42
File size : 511 MiB
Duration : 2h 31mn
Overall bit rate mode : Variable
Overall bit rate : 472 Kbps
Movie name : premierebase2
Encoded date : UTC 2014-08-29 12:56:16
Tagged date : UTC 2014-08-29 12:56:16
Video
ID : 1
Format : AVC
Format/Info : Advanced Video Codec
Format profile : [url=mailto:Baseline@L3.1]Baseline@L3.1[/url]
Format settings, CABAC : No
Format settings, ReFrames : 3 frames
Format settings, GOP : M=1, N=75
Codec ID : avc1
Codec ID/Info : Advanced Video Coding
Duration : 2h 31mn
Bit rate : 344 Kbps
Width : 1 060 pixels
Height : 660 pixels
Display aspect ratio : 16:10
Frame rate mode : Constant
Frame rate : 15.000 fps
Color space : YUV
Chroma subsampling : 4:2:0
Bit depth : 8 bits
Scan type : Progressive
Bits/(Pixel*Frame) : 0.033
Stream size : 373 MiB (73%)
Language : English
Encoded date : UTC 2014-08-29 12:56:17
Tagged date : UTC 2014-08-29 12:56:17
Audio
ID : 2
Format : AAC
Format/Info : Advanced Audio Codec
Format profile : LC
Codec ID : 40
Duration : 2h 31mn
Bit rate mode : Variable
Bit rate : 126 Kbps
Maximum bit rate : 261 Kbps
Channel count : 2 channels
Channel positions : Front: L R
Sampling rate : 44.1 KHz
Compression mode : Lossy
Stream size : 136 MiB (27%)
Language : English
Encoded date : UTC 2014-08-29 12:56:17
Tagged date : UTC 2014-08-29 12:56:17
General
Complete name : G:\Дмитрий Ларионов - Adobe Premiere Pro CC - Базовый уровень (2014)\Занятие 3\Занятие 3.mp4
Format : MPEG-4
Format profile : Base Media / Version 2
Codec ID : mp42
File size : 538 MiB
Duration : 2h 25mn
Overall bit rate mode : Variable
Overall bit rate : 516 Kbps
Movie name : premierebase3
Encoded date : UTC 2014-08-29 14:21:50
Tagged date : UTC 2014-08-29 14:21:50
Video
ID : 1
Format : AVC
Format/Info : Advanced Video Codec
Format profile : [url=mailto:Baseline@L3.1]Baseline@L3.1[/url]
Format settings, CABAC : No
Format settings, ReFrames : 3 frames
Format settings, GOP : M=1, N=75
Codec ID : avc1
Codec ID/Info : Advanced Video Coding
Duration : 2h 25mn
Bit rate : 388 Kbps
Width : 1 060 pixels
Height : 660 pixels
Display aspect ratio : 16:10
Frame rate mode : Constant
Frame rate : 15.000 fps
Color space : YUV
Chroma subsampling : 4:2:0
Bit depth : 8 bits
Scan type : Progressive
Bits/(Pixel*Frame) : 0.037
Stream size : 405 MiB (75%)
Language : English
Encoded date : UTC 2014-08-29 14:21:50
Tagged date : UTC 2014-08-29 14:21:50
Audio
ID : 2
Format : AAC
Format/Info : Advanced Audio Codec
Format profile : LC
Codec ID : 40
Duration : 2h 25mn
Bit rate mode : Variable
Bit rate : 126 Kbps
Maximum bit rate : 258 Kbps
Channel count : 2 channels
Channel positions : Front: L R
Sampling rate : 44.1 KHz
Compression mode : Lossy
Stream size : 131 MiB (24%)
Language : English
Encoded date : UTC 2014-08-29 14:21:50
Tagged date : UTC 2014-08-29 14:21:50
General
Complete name : G:\Дмитрий Ларионов - Adobe Premiere Pro CC - Базовый уровень (2014)\Занятие 4\Занятие 4-1.mp4
Format : MPEG-4
Format profile : Base Media / Version 2
Codec ID : mp42
File size : 87.5 MiB
Duration : 31mn 6s
Overall bit rate mode : Variable
Overall bit rate : 393 Kbps
Movie name : premierebase4-1
Encoded date : UTC 2014-09-06 13:31:03
Tagged date : UTC 2014-09-06 13:31:03
Video
ID : 1
Format : AVC
Format/Info : Advanced Video Codec
Format profile : [url=mailto:Baseline@L3.1]Baseline@L3.1[/url]
Format settings, CABAC : No
Format settings, ReFrames : 3 frames
Format settings, GOP : M=1, N=75
Codec ID : avc1
Codec ID/Info : Advanced Video Coding
Duration : 31mn 6s
Bit rate : 265 Kbps
Width : 1 096 pixels
Height : 616 pixels
Display aspect ratio : 16:9
Frame rate mode : Constant
Frame rate : 15.000 fps
Color space : YUV
Chroma subsampling : 4:2:0
Bit depth : 8 bits
Scan type : Progressive
Bits/(Pixel*Frame) : 0.026
Stream size : 59.1 MiB (68%)
Language : English
Encoded date : UTC 2014-09-06 13:31:03
Tagged date : UTC 2014-09-06 13:31:03
Audio
ID : 2
Format : AAC
Format/Info : Advanced Audio Codec
Format profile : LC
Codec ID : 40
Duration : 31mn 6s
Bit rate mode : Variable
Bit rate : 126 Kbps
Maximum bit rate : 253 Kbps
Channel count : 2 channels
Channel positions : Front: L R
Sampling rate : 44.1 KHz
Compression mode : Lossy
Stream size : 28.0 MiB (32%)
Language : English
Encoded date : UTC 2014-09-06 13:31:03
Tagged date : UTC 2014-09-06 13:31:03
General
Complete name : G:\Дмитрий Ларионов - Adobe Premiere Pro CC - Базовый уровень (2014)\Занятие 4\Занятие 4-2.mp4
Format : MPEG-4
Format profile : Base Media / Version 2
Codec ID : mp42
File size : 357 MiB
Duration : 1h 43mn
Overall bit rate mode : Variable
Overall bit rate : 484 Kbps
Movie name : premierebase4-2
Encoded date : UTC 2014-09-06 13:42:07
Tagged date : UTC 2014-09-06 13:42:07
Video
ID : 1
Format : AVC
Format/Info : Advanced Video Codec
Format profile : [url=mailto:Baseline@L3.1]Baseline@L3.1[/url]
Format settings, CABAC : No
Format settings, ReFrames : 3 frames
Format settings, GOP : M=1, N=75
Codec ID : avc1
Codec ID/Info : Advanced Video Coding
Duration : 1h 43mn
Bit rate : 356 Kbps
Width : 1 060 pixels
Height : 660 pixels
Display aspect ratio : 16:10
Frame rate mode : Constant
Frame rate : 15.000 fps
Color space : YUV
Chroma subsampling : 4:2:0
Bit depth : 8 bits
Scan type : Progressive
Bits/(Pixel*Frame) : 0.034
Stream size : 263 MiB (74%)
Language : English
Encoded date : UTC 2014-09-06 13:42:07
Tagged date : UTC 2014-09-06 13:42:07
Audio
ID : 2
Format : AAC
Format/Info : Advanced Audio Codec
Format profile : LC
Codec ID : 40
Duration : 1h 43mn
Bit rate mode : Variable
Bit rate : 126 Kbps
Maximum bit rate : 275 Kbps
Channel count : 2 channels
Channel positions : Front: L R
Sampling rate : 44.1 KHz
Compression mode : Lossy
Stream size : 92.8 MiB (26%)
Language : English
Encoded date : UTC 2014-09-06 13:42:07
Tagged date : UTC 2014-09-06 13:42:07
General
Complete name : G:\Дмитрий Ларионов - Adobe Premiere Pro CC - Базовый уровень (2014)\Занятие 5\Занятие 5.mp4
Format : MPEG-4
Format profile : Base Media / Version 2
Codec ID : mp42
File size : 532 MiB
Duration : 2h 20mn
Overall bit rate mode : Variable
Overall bit rate : 530 Kbps
Movie name : premierebase5
Encoded date : UTC 2014-09-07 07:35:49
Tagged date : UTC 2014-09-07 07:35:49
Video
ID : 1
Format : AVC
Format/Info : Advanced Video Codec
Format profile : [url=mailto:Baseline@L3.1]Baseline@L3.1[/url]
Format settings, CABAC : No
Format settings, ReFrames : 3 frames
Format settings, GOP : M=1, N=75
Codec ID : avc1
Codec ID/Info : Advanced Video Coding
Duration : 2h 20mn
Bit rate : 402 Kbps
Width : 1 060 pixels
Height : 660 pixels
Display aspect ratio : 16:10
Frame rate mode : Constant
Frame rate : 15.000 fps
Color space : YUV
Chroma subsampling : 4:2:0
Bit depth : 8 bits
Scan type : Progressive
Bits/(Pixel*Frame) : 0.038
Stream size : 404 MiB (76%)
Language : English
Encoded date : UTC 2014-09-07 07:35:50
Tagged date : UTC 2014-09-07 07:35:50
Audio
ID : 2
Format : AAC
Format/Info : Advanced Audio Codec
Format profile : LC
Codec ID : 40
Duration : 2h 20mn
Bit rate mode : Variable
Bit rate : 126 Kbps
Maximum bit rate : 439 Kbps
Channel count : 2 channels
Channel positions : Front: L R
Sampling rate : 44.1 KHz
Compression mode : Lossy
Stream size : 126 MiB (24%)
Language : English
Encoded date : UTC 2014-09-07 07:35:50
Tagged date : UTC 2014-09-07 07:35:50
General
Complete name : G:\Дмитрий Ларионов - Adobe Premiere Pro CC - Базовый уровень (2014)\Занятие 6\Занятие 6.mp4
Format : MPEG-4
Format profile : Base Media / Version 2
Codec ID : mp42
File size : 488 MiB
Duration : 2h 24mn
Overall bit rate mode : Variable
Overall bit rate : 473 Kbps
Movie name : premierebase6
Encoded date : UTC 2014-09-11 18:04:55
Tagged date : UTC 2014-09-11 18:04:55
Video
ID : 1
Format : AVC
Format/Info : Advanced Video Codec
Format profile : [url=mailto:Baseline@L3.1]Baseline@L3.1[/url]
Format settings, CABAC : No
Format settings, ReFrames : 3 frames
Format settings, GOP : M=1, N=75
Codec ID : avc1
Codec ID/Info : Advanced Video Coding
Duration : 2h 24mn
Bit rate : 345 Kbps
Width : 1 060 pixels
Height : 660 pixels
Display aspect ratio : 16:10
Frame rate mode : Constant
Frame rate : 15.000 fps
Color space : YUV
Chroma subsampling : 4:2:0
Bit depth : 8 bits
Scan type : Progressive
Bits/(Pixel*Frame) : 0.033
Stream size : 356 MiB (73%)
Language : English
Encoded date : UTC 2014-09-11 18:04:56
Tagged date : UTC 2014-09-11 18:04:56
Audio
ID : 2
Format : AAC
Format/Info : Advanced Audio Codec
Format profile : LC
Codec ID : 40
Duration : 2h 24mn
Bit rate mode : Variable
Bit rate : 126 Kbps
Maximum bit rate : 303 Kbps
Channel count : 2 channels
Channel positions : Front: L R
Sampling rate : 44.1 KHz
Compression mode : Lossy
Stream size : 130 MiB (27%)
Language : English
Encoded date : UTC 2014-09-11 18:04:56
Tagged date : UTC 2014-09-11 18:04:56
General
Complete name : G:\Дмитрий Ларионов - Adobe Premiere Pro CC - Базовый уровень (2014)\Занятие 7\Занятие 7-1.mp4
Format : MPEG-4
Format profile : Base Media / Version 2
Codec ID : mp42
File size : 579 MiB
Duration : 2h 10mn
Overall bit rate mode : Variable
Overall bit rate : 619 Kbps
Movie name : premierebase7-1
Encoded date : UTC 2014-09-18 20:07:09
Tagged date : UTC 2014-09-18 20:07:09
Video
ID : 1
Format : AVC
Format/Info : Advanced Video Codec
Format profile : [url=mailto:Baseline@L3.1]Baseline@L3.1[/url]
Format settings, CABAC : No
Format settings, ReFrames : 3 frames
Format settings, GOP : M=1, N=75
Codec ID : avc1
Codec ID/Info : Advanced Video Coding
Duration : 2h 10mn
Bit rate : 491 Kbps
Width : 1 096 pixels
Height : 616 pixels
Display aspect ratio : 16:9
Frame rate mode : Constant
Frame rate : 15.000 fps
Color space : YUV
Chroma subsampling : 4:2:0
Bit depth : 8 bits
Scan type : Progressive
Bits/(Pixel*Frame) : 0.048
Stream size : 459 MiB (79%)
Language : English
Encoded date : UTC 2014-09-18 20:07:10
Tagged date : UTC 2014-09-18 20:07:10
Audio
ID : 2
Format : AAC
Format/Info : Advanced Audio Codec
Format profile : LC
Codec ID : 40
Duration : 2h 10mn
Bit rate mode : Variable
Bit rate : 126 Kbps
Maximum bit rate : 317 Kbps
Channel count : 2 channels
Channel positions : Front: L R
Sampling rate : 44.1 KHz
Compression mode : Lossy
Stream size : 118 MiB (20%)
Language : English
Encoded date : UTC 2014-09-18 20:07:10
Tagged date : UTC 2014-09-18 20:07:10
General
Complete name : G:\Дмитрий Ларионов - Adobe Premiere Pro CC - Базовый уровень (2014)\Занятие 7\Занятие 7-2.mp4
Format : MPEG-4
Format profile : Base Media / Version 2
Codec ID : mp42
File size : 452 MiB
Duration : 2h 1mn
Overall bit rate mode : Variable
Overall bit rate : 522 Kbps
Movie name : premierebase7-2
Encoded date : UTC 2014-09-18 21:22:00
Tagged date : UTC 2014-09-18 21:22:00
Video
ID : 1
Format : AVC
Format/Info : Advanced Video Codec
Format profile : [url=mailto:Baseline@L3.1]Baseline@L3.1[/url]
Format settings, CABAC : No
Format settings, ReFrames : 3 frames
Format settings, GOP : M=1, N=75
Codec ID : avc1
Codec ID/Info : Advanced Video Coding
Duration : 2h 1mn
Bit rate : 394 Kbps
Width : 1 060 pixels
Height : 660 pixels
Display aspect ratio : 16:10
Frame rate mode : Constant
Frame rate : 15.000 fps
Color space : YUV
Chroma subsampling : 4:2:0
Bit depth : 8 bits
Scan type : Progressive
Bits/(Pixel*Frame) : 0.038
Stream size : 341 MiB (76%)
Language : English
Encoded date : UTC 2014-09-18 21:22:00
Tagged date : UTC 2014-09-18 21:22:00
Audio
ID : 2
Format : AAC
Format/Info : Advanced Audio Codec
Format profile : LC
Codec ID : 40
Duration : 2h 1mn
Bit rate mode : Variable
Bit rate : 126 Kbps
Maximum bit rate : 261 Kbps
Channel count : 2 channels
Channel positions : Front: L R
Sampling rate : 44.1 KHz
Compression mode : Lossy
Stream size : 109 MiB (24%)
Language : English
Encoded date : UTC 2014-09-18 21:22:00
Tagged date : UTC 2014-09-18 21:22:00
General
Complete name : G:\Дмитрий Ларионов - Adobe Premiere Pro CC - Базовый уровень (2014)\Занятие 8\Занятие 8.mp4
Format : MPEG-4
Format profile : Base Media / Version 2
Codec ID : mp42
File size : 459 MiB
Duration : 2h 23mn
Overall bit rate mode : Variable
Overall bit rate : 448 Kbps
Movie name : premierebase8
Encoded date : UTC 2014-09-19 12:53:09
Tagged date : UTC 2014-09-19 12:53:09
Video
ID : 1
Format : AVC
Format/Info : Advanced Video Codec
Format profile : [url=mailto:Baseline@L3.1]Baseline@L3.1[/url]
Format settings, CABAC : No
Format settings, ReFrames : 3 frames
Format settings, GOP : M=1, N=75
Codec ID : avc1
Codec ID/Info : Advanced Video Coding
Duration : 2h 23mn
Bit rate : 320 Kbps
Width : 1 060 pixels
Height : 660 pixels
Display aspect ratio : 16:10
Frame rate mode : Constant
Frame rate : 15.000 fps
Color space : YUV
Chroma subsampling : 4:2:0
Bit depth : 8 bits
Scan type : Progressive
Bits/(Pixel*Frame) : 0.030
Stream size : 328 MiB (71%)
Language : English
Encoded date : UTC 2014-09-19 12:53:10
Tagged date : UTC 2014-09-19 12:53:10
Audio
ID : 2
Format : AAC
Format/Info : Advanced Audio Codec
Format profile : LC
Codec ID : 40
Duration : 2h 23mn
Bit rate mode : Variable
Bit rate : 126 Kbps
Maximum bit rate : 326 Kbps
Channel count : 2 channels
Channel positions : Front: L R
Sampling rate : 44.1 KHz
Compression mode : Lossy
Stream size : 129 MiB (28%)
Language : English
Encoded date : UTC 2014-09-19 12:53:10
Tagged date : UTC 2014-09-19 12:53:10
Скриншоты:
Скачать .torrent

Для того, чтобы скачать торрент-файл

[Profileschool] Дмитрий Ларионов - Adobe Premiere Pro. Базовый уровень (2014)

с нашего сайта, Вам необходимо Войти на сайт под своим логином! Если у Вас ещё нет логина, тогда Вам нужно сначала Зарегистрироваться!

Как скачивать? · Что такое торрент? · Рейтинг и ограничения

Показать сообщения:    
Ответить на тему

[Profileschool] Дмитрий Ларионов - Adobe Premiere Pro. Базовый уровень (2014) скачать торрент (torrent), видеоуроки, тренинги, обучающее видео и видеокурсы

Текущее время: Сегодня 03:23

Часовой пояс: GMT + 4



Вы не можете начинать темы
Вы не можете отвечать на сообщения
Вы не можете редактировать свои сообщения
Вы не можете удалять свои сообщения
Вы не можете голосовать в опросах
Вы не можете прикреплять файлы к сообщениям
Вы не можете скачивать файлы