Данил Фимушкин - Создание убойной анимации в Adobe Edge Animate CC (2014)

Ответить на тему
 
Автор Сообщение

Yulya ®

-Данил Фимушкин - Создание убойной анимации в Adobe Edge Animate CC (2014)- Автор (режиссер): Данил Фимушкин
Жанр: Видеокурс
Продолжительность: 00:02:40
Качество видео: PCRec
Видеокодек: AVC
Битрейт видео: ~30fps 211kbps
Размер кадра: 1364x768
Аудиокодек: AAC
Битрейт аудио: 44100Hz stereo 125kbps
Доп. материалы: Имеются
Описание:
Вы научитесь создавать интерактивную анимацию. Adobe Edge Animate СС — это удобная программа и вся мощь современных технологий. Это будущее, которое вытесняет с рынка Flash. Курс может быть полезен тем, кто давно мечтал научиться создавать анимацию, дизайнерам, которые ещё работают на флеш, или веб-дизайнерам, которые хотят привнести в свои макеты немного изюма.

Дополнительная информация:

Содержание видеокурса
1 модуль: Основы. Анимация лица мультипликационного персонажа
• Создание проекта в Adobe Edge Animate CC.
• Обзор интерфейса программы.
• Работа с импортом подготовленных изображений.
• Сборка композиции ролика на Stage.
• Обзор инструментов создания анимации: Auto Transmission mode, Auto Keyframe mode, Toggle Pin.
• Создание реалистичной анимации движения с помощью кривой движения.
• Создание вложенной анимации с помощью символов на примере моргания глаз персонажа.
• Анимация движения, прозрачности, вращения, покадровая анимация.
• Зацикливание анимации с помощью триггеров и лэйблов.
• Все исходные файлы, которые используются в проекте.
2 модуль: Создание баннера
• Подготовка изображений в Photoshop для анимации в Adobe Edge Animate CC
• Как сделать чтобы при клике на баннер открывался нужный сайт?
• Покадровая анимация бега на основе спрайт-листа
• Подключение нестандартных шрифтов к ролику
• Создание полосы загрузки для баннера
• Изменение курсора
3 модуль: Создание интерактивной анимации
• Создание композиции сцены в Photoshop
• Горизонтальный parallax-эффект
• Вертикальный parallax-эффект
• Создание кастомизированной фотогалереи для сайта
• Интерактивный элемент с нелинейной анимацией
• Создание интерактивного баннера с видео-эффектом
• Использование обработчика событий нажатием мыши
4 модуль: Создание сайта в Adobe Edge Animate CC
• Взаимодействие Adobe Edge и Adobe Photoshop
• Инструменты сохранения для web
• Slice tool, slice tool selection в Adobe Photoshop
• Работа со шрифтами
• Создание интерактивного меню на сайте
5 модуль: Публикация анимации созданной в Adobe Edge Animate CC
• Понятия хостинг и домен
• Пошаговый процесс регистрации и оплаты своего хостинга и домена
• Установка ftp-клиента FileZilla
• Загрузка анимации в Интернет через FileZilla
• Публикация анимации с помощью Adobe Muse CC
• Встройка анимации в wordpress
• Установка плагина Edge Suite

MI

Общее
Полное имя : D:\Торренты\sodanie.yboi.animac\1_modul\1_modul_video\1_urok_video.mp4
Формат : MPEG-4
Профиль формата : Base Media / Version 2
Идентификатор кодека : mp42
Размер файла : 56,6 Мбайт
Продолжительность : 23 м.
Режим общего битрейта : Переменный
Общий поток : 340 Кбит/сек
Название фильма : kurs
Дата кодирования : UTC 2013-11-26 09:34:50
Дата пометки : UTC 2013-11-26 09:34:50
Видео
Идентификатор : 1
Формат : AVC
Формат/Информация : Advanced Video Codec
Профиль формата : [url=mailto:Baseline@L3.2]Baseline@L3.2[/url]
Параметр CABAC формата : Нет
Параметр ReFrames формата : 3 кадра
Идентификатор кодека : avc1
Идентификатор кодека/Информация : Advanced Video Coding
Продолжительность : 23 м.
Продолжительность оригинала : 23 м.
Вид битрейта : Переменный
Битрейт : 211 Кбит/сек
Ширина : 1364 пикселя
Высота : 768 пикселей
Соотношение сторон : 16:9
Режим частоты кадров : Переменный
Частота кадров : 30,000 кадров/сек
Минимальная частота кадров : 30,000 кадров/сек
Максимальная частота кадров : 30,030 кадров/сек
Стандарт вещания : NTSC
Цветовое пространство : YUV
Субдискретизация насыщенности : 4:2:0
Битовая глубина : 8 бит
Тип развёртки : Прогрессивная
Бит/(Пиксели*Кадры) : 0.007
Размер потока : 35,2 Мбайт (62%)
Размер потока оригинала : 35,2 Мбайт (62%)
Язык : English
Дата кодирования : UTC 2013-11-26 09:34:50
Дата пометки : UTC 2013-11-26 09:34:50
mdhd_Duration : 1395333
Аудио
Идентификатор : 2
Формат : AAC
Формат/Информация : Advanced Audio Codec
Профиль формата : LC
Идентификатор кодека : 40
Продолжительность : 23 м.
Продолжительность оригинала : 23 м.
Вид битрейта : Переменный
Битрейт : 125 Кбит/сек
Максимальный битрейт : 292 Кбит/сек
Каналы : 2 канала
Расположение каналов : Front: L R
Частота : 44,1 КГц
Метод сжатия : С потерями
Размер потока : 20,9 Мбайт (37%)
Размер потока оригинала : 20,9 Мбайт (37%)
Язык : English
Дата кодирования : UTC 2013-11-26 09:34:50
Дата пометки : UTC 2013-11-26 09:34:50
mdhd_Duration : 1395357
Скриншоты:
Скачать .torrent

Для того, чтобы скачать торрент-файл

Данил Фимушкин - Создание убойной анимации в Adobe Edge Animate CC (2014)

с нашего сайта, Вам необходимо Войти на сайт под своим логином! Если у Вас ещё нет логина, тогда Вам нужно сначала Зарегистрироваться!

Как скачивать? · Что такое торрент? · Рейтинг и ограничения

Показать сообщения:    
Ответить на тему

Данил Фимушкин - Создание убойной анимации в Adobe Edge Animate CC (2014) скачать торрент (torrent), видеоуроки, тренинги, обучающее видео и видеокурсы

Текущее время: Сегодня 13:40

Часовой пояс: GMT + 4



Вы не можете начинать темы
Вы не можете отвечать на сообщения
Вы не можете редактировать свои сообщения
Вы не можете удалять свои сообщения
Вы не можете голосовать в опросах
Вы не можете прикреплять файлы к сообщениям
Вы не можете скачивать файлы