Последнее из V.I.P.-раздела

10-Авг
10-Авг
10-Авг
10-Авг
10-Авг
10-Авг
10-Авг
10-Авг
10-Авг
10-Авг
10-Авг
10-Авг
10-Авг
10-Авг
10-Авг
10-Авг
10-Авг
09-Авг
09-Авг
09-Авг

Новости о коронавирусе

[profileschool] Алексей Довгуля - Графический планшет для ретушера (2014)

Ответить на тему
 
Автор Сообщение

Yulya ®

-[profileschool] Алексей Довгуля - Графический планшет для ретушера (2014)- Автор (режиссер): "profileschool"
Жанр: Мастер-класс
Преподаватель: Алексей Довгуля
Продолжительность: 02:52:02
Качество видео: PCRec
Видеокодек: AVC/H.264
Битрейт видео: ~15fps 361kbps
Размер кадра: 1920x976
Аудиокодек: AAC
Битрейт аудио: 48000Hz stereo 94kbps
Доп. материалы: Имеются
Описание:
Этот онлайн-мастер-класс предназначен для начинающих ретушеров, которые все еще работают мышью. После занятия у вас не останется вопросов и сомнений, нужно ли переходить на планшет и как это сделать наилучшим образом. Также занятие будет познавательным и для тех, кто уже использует планшет, — преподаватель разберет особенности практической работы ретушера.

Дополнительная информация:

Программа мастер-класса
● Выбор планшета
○ размер
○ модели
○ производители
● Настройка планшета
○ чувствительность
○ рабочая область
● Настройка кистей
○ Dodge&Burn
○ Clone Stamp
○ Mixer Brush
○ Healing Brush
● Основные навыки работы на планшете

MI

Общее
Полное имя : D:\Торренты\Графический планшет для ретушера (2014)\Tablet_01.mp4
Формат : MPEG-4
Профиль формата : Base Media
Идентификатор кодека : isom
Размер файла : 213 Мбайт
Продолжительность : 1 ч. 4 м.
Режим общего битрейта : Переменный
Общий поток : 460 Кбит/сек
Дата кодирования : UTC 2014-08-26 12:17:30
Дата пометки : UTC 2014-08-26 12:17:30
Видео
Идентификатор : 1
Формат : AVC
Формат/Информация : Advanced Video Codec
Профиль формата : [url=mailto:Main@L4.0]Main@L4.0[/url]
Параметр CABAC формата : Да
Параметр ReFrames формата : 6 кадров
Идентификатор кодека : avc1
Идентификатор кодека/Информация : Advanced Video Coding
Продолжительность : 1 ч. 4 м.
Битрейт : 361 Кбит/сек
Максимальный битрейт : 2038 Кбит/сек
Ширина : 1920 пикселей
Высота : 976 пикселей
Соотношение сторон : 1,967
Режим частоты кадров : Постоянный
Частота кадров : 15,000 кадров/сек
Цветовое пространство : YUV
Субдискретизация насыщенности : 4:2:0
Битовая глубина : 8 бит
Тип развёртки : Прогрессивная
Бит/(Пиксели*Кадры) : 0.013
Размер потока : 167 Мбайт (79%)
Библиотека кодирования : x264 core 130 r2273 b3065e6
Настройки программы : cabac=1 / ref=6 / deblock=1:0:0 / analyse=0x1:0x111 / me=umh / subme=7 / psy=1 / psy_rd=1.00:0.00 / mixed_ref=1 / me_range=16 / chroma_me=1 / trellis=1 / 8x8dct=0 / cqm=0 / deadzone=21,11 / fast_pskip=1 / chroma_qp_offset=-2 / threads=3 / lookahead_threads=1 / sliced_threads=0 / nr=0 / decimate=1 / interlaced=0 / bluray_compat=0 / constrained_intra=0 / bframes=3 / b_pyramid=2 / b_adapt=1 / b_bias=0 / direct=1 / weightb=1 / open_gop=0 / weightp=2 / keyint=250 / keyint_min=15 / scenecut=40 / intra_refresh=0 / rc_lookahead=60 / rc=crf / mbtree=1 / crf=21.0 / qcomp=0.60 / qpmin=0 / qpmax=69 / qpstep=4 / ip_ratio=1.40 / aq=1:1.00
Дата кодирования : UTC 2014-08-26 12:17:30
Дата пометки : UTC 2014-08-26 12:17:33
Аудио
Идентификатор : 2
Формат : AAC
Формат/Информация : Advanced Audio Codec
Профиль формата : LC
Идентификатор кодека : 40
Продолжительность : 1 ч. 4 м.
Вид битрейта : Переменный
Битрейт : 96,0 Кбит/сек
Максимальный битрейт : 120 Кбит/сек
Каналы : 2 канала
Расположение каналов : Front: L R
Частота : 48,0 КГц
Метод сжатия : С потерями
Задержка видео : 133 мс.
Размер потока : 43,8 Мбайт (21%)
Дата кодирования : UTC 2014-08-26 12:17:33
Дата пометки : UTC 2014-08-26 12:17:33
Скриншоты:
Скачать .torrent

Для того, чтобы скачать торрент-файл

[profileschool] Алексей Довгуля - Графический планшет для ретушера (2014)

с нашего сайта, Вам необходимо Войти на сайт под своим логином! Если у Вас ещё нет логина, тогда Вам нужно сначала Зарегистрироваться!

Как скачивать? · Что такое торрент? · Рейтинг и ограничения

Swyat

Спасибо !
Показать сообщения:    
Ответить на тему

[profileschool] Алексей Довгуля - Графический планшет для ретушера (2014) скачать торрент (torrent), видеоуроки, тренинги, обучающее видео и видеокурсы

Текущее время: Сегодня 01:42

Часовой пояс: GMT + 4



Вы не можете начинать темы
Вы не можете отвечать на сообщения
Вы не можете редактировать свои сообщения
Вы не можете удалять свои сообщения
Вы не можете голосовать в опросах
Вы не можете прикреплять файлы к сообщениям
Вы не можете скачивать файлы