Последнее из V.I.P.-раздела

19-Ноя-19 06:59
19-Ноя-19 06:58
19-Ноя-19 06:54
19-Ноя-19 06:49
19-Ноя-19 06:47
19-Ноя-19 06:46
19-Ноя-19 06:37
19-Ноя-19 06:35
19-Ноя-19 06:30
19-Ноя-19 06:25

[Profileschool] Алексей Довгуля - Мастер-класс Смешанный Свет. Практика применения (2013)

Ответить на тему
 
Автор Сообщение

Yulya ®

-[Profileschool] Алексей Довгуля - Мастер-класс Смешанный Свет. Практика применения (2013)- Автор (режиссер): Алексей Довгуля
Жанр: Обучающие видео
Продолжительность: 03:04:31
Качество видео: PCRec
Video: MPEG4 Video 1552x632 25fps 638kbps
Audio: AAC 44100Hz stereo 151kbps
В последнее время в студии довольно популярным стало применение смешанного света (постоянного и импульсного) для создания креативных эффектов в съемке. Однако далеко не всем удается использовать его корректно и получать ожидаемый результат. Этот онлайн-мастер-класс не просто разбор приемов, применяемых фотографом, а пошаговая инструкция использования импульсного и постоянного света, на основе которого создаются красивые, эффектные снимки.
На мастер-классе Алексей Довгуля поделится своим опытом, поможет вам разобраться даже с самыми безумными творческими идеями!

Программа мастер-класса:

Часть первая.
● Различие постоянного и импульсного света и их особенности.
● Экспонометрия и нахождение оптимальных значений настроек камеры, осветительных приборов.
● Фильтры (конверсионные, понижающие и диффузные).
● Средства синхронизации.
Часть вторая.
● Практическое применение смешанного света.
● Съемка с постоянным светом в качестве заполняющего.
● Съемка с постоянным светом в качестве контрового.
● Съемка с смешанным светом и тканями.
● Прочее использование смешанного света.

Рекомендуемое оборудование:

● серый фон;
● 4 источника импульсного света по 500 Дж с работающими пилотами;
● портретная тарелка с сотами;
● 4 стандартных рефлектора с набором сот;
● фильтры (конверсионные, понижающие и диффузные);
● дым-машина.

MediaInfo

General
Complete name : H:\tutorials\profileschool.ru\Алексей Довгуля - Смешанный свет. Практика применения (2013)\Видео.mp4
Format : MPEG-4
Format profile : Base Media
Codec ID : isom
File size : 1.02 GiB
Duration : 3h 4mn
Overall bit rate mode : Variable
Overall bit rate : 795 Kbps
Writing application : AVM.EXE
Video
ID : 1
Format : MPEG-4 Visual
Format profile : Simple@L1
Format settings, BVOP : No
Format settings, QPel : No
Format settings, GMC : No warppoints
Format settings, Matrix : Default (H.263)
Codec ID : 20
Duration : 3h 4mn
Bit rate : 638 Kbps
Width : 1 552 pixels
Height : 632 pixels
Display aspect ratio : 2.456
Frame rate mode : Variable
Frame rate : 25.000 fps
Minimum frame rate : 12.500 fps
Maximum frame rate : 25.000 fps
Color space : YUV
Chroma subsampling : 4:2:0
Bit depth : 8 bits
Scan type : Progressive
Compression mode : Lossy
Bits/(Pixel*Frame) : 0.026
Stream size : 842 MiB (80%)
Writing library : Lavc52.72.2
Audio
ID : 2
Format : AAC
Format/Info : Advanced Audio Codec
Format profile : LC
Codec ID : 40
Duration : 3h 4mn
Bit rate mode : Variable
Bit rate : 152 Kbps
Channel count : 2 channels
Channel positions : Front: L R
Sampling rate : 44.1 KHz
Compression mode : Lossy
Stream size : 201 MiB (19%)
Скриншоты:
Скачать .torrent

Для того, чтобы скачать торрент-файл

[Profileschool] Алексей Довгуля - Мастер-класс Смешанный Свет. Практика применения (2013)

с нашего сайта, Вам необходимо Войти на сайт под своим логином! Если у Вас ещё нет логина, тогда Вам нужно сначала Зарегистрироваться!

Как скачивать? · Что такое торрент? · Рейтинг и ограничения

Показать сообщения:    
Ответить на тему

[Profileschool] Алексей Довгуля - Мастер-класс Смешанный Свет. Практика применения (2013) скачать торрент (torrent), видеоуроки, тренинги, обучающее видео и видеокурсы

Текущее время: Сегодня 00:48

Часовой пояс: GMT + 4



Вы не можете начинать темы
Вы не можете отвечать на сообщения
Вы не можете редактировать свои сообщения
Вы не можете удалять свои сообщения
Вы не можете голосовать в опросах
Вы не можете прикреплять файлы к сообщениям
Вы не можете скачивать файлы