Последнее из V.I.P.-раздела

19-Ноя-19 06:59
19-Ноя-19 06:58
19-Ноя-19 06:54
19-Ноя-19 06:49
19-Ноя-19 06:47
19-Ноя-19 06:46
19-Ноя-19 06:37
19-Ноя-19 06:35
19-Ноя-19 06:30
19-Ноя-19 06:25

Максим Соколов - Мастер Adobe Muse (2014)

Ответить на тему
 
Автор Сообщение

Yulya ®

-Максим Соколов - Мастер Adobe Muse (2014)- Автор (режиссер): Максим Соколов
Жанр: Обучающие видеуроки
Продолжительность: 06:42:39
Качество видео: PCRec
Видеокодек: AVC
Битрейт видео: ~74,6 - 502 kb/s
Размер кадра: 1024x768 - 1280x794
Аудиокодек: AAC
Битрейт аудио: 53,4 - 53,6 kb/s, 2 Ch
Доп. материалы: Есть
Описание:
Создание веб-сайтов профессионального уровня без написания кода. Adobe Muse позволяет графическим дизайнерам наполнять сайты содержимым с помощью хорошо знакомых им инструментов, сотен веб-шрифтов и встроенных средств добавления интерактивности. Более того, вы можете создавать версии сайтов для смартфонов и планшетных компьютеров.
Месячный онлайн-коучинг "Создание сайтов без знаний HTML и CSS в Adobe Muse".
Первый в России полный курс создания сайтов премиум сегмента с нуля до профессионального уровня.
Используя полученные знания вы станете востребованным специалистом в области разработки и внедрения под ключ сайтов-конвертеров трафика.

Дополнительная информация:

Основные тренды дизайна:
В данный момент в тренде две вещи - это создание продающих сайтов (Landing Page) с использованием последних web эффектов (слайдеры, видеобоксы, раздвижные панели, parallax эффекты и т.д.), а так же корпоративные сайты с новостными блоками и модулями интернет-магазинов.
Как ни странно для профессиональных программистов, но такие сайты может с легкостью создавать человек, который не имеет никакого отношения к программированию и базам данных.
Конечно, вы не создадите крупный интернет-магазин как «Техносила» или «Эльдорадо», но вам будет под силу сделать красивый презентационный сайт имеющий модуль новостей и интернет-магазином с корзиной заказа.
Вариантов изучения программы Adobe Muse два. Вы можете собирать бесплатные уроки по интернету, читать зарубежные форумы и группы Вконтакте, но обычно ваш ждет тернистый путь с кучей ошибок, которые неизбежно будут совершены на этом пути.
А для тех, кто хочет пройти этот путь с максимальной эффективностью и всего за месяц до профессионала, создан обучающий тренинг «МАСТЕР ADOBE MUSE». В данный момент это самый сильный коучинг на всем русскоязычном пространстве.

MediaInfo:

Код:
Общее
Полное имя                               : C:\Максим Соколов - Web-мастер Adobe Muse - 2014\02_Основы работы с текстом\2_Основы работы с текстом.mp4
Формат                                   : MPEG-4
Профиль формата                          : Base Media / Version 2
Идентификатор кодека                     : mp42
Размер файла                             : 24,5 Мбайт
Продолжительность                        : 16 м.
Общий поток                              : 209 Кбит/сек
Дата кодирования                         : UTC 2014-01-07 19:28:27
Дата пометки                             : UTC 2014-01-07 19:28:27
Видео
Идентификатор                            : 1
Формат                                   : AVC
Формат/Информация                        : Advanced Video Codec
Профиль формата                          : [url=mailto:High@L3.1]High@L3.1[/url]
Параметр CABAC формата                   : Да
Параметр ReFrames формата                : 4 кадра
Параметр GOP формата                     : M=1, N=75
Идентификатор кодека                     : avc1
Идентификатор кодека/Информация          : Advanced Video Coding
Продолжительность                        : 16 м.
Продолжительность оригинала              : 16 м.
Битрейт                                  : 153 Кбит/сек
Ширина                                   : 1024 пикселя
Высота                                   : 768 пикселей
Соотношение сторон                       : 4:3
Режим частоты кадров                     : Постоянный
Частота кадров                           : 15,000 кадров/сек
Цветовое пространство                    : YUV
Субдискретизация насыщенности            : 4:2:0
Битовая глубина                          : 8 бит
Тип развёртки                            : Прогрессивная
Бит/(Пиксели*Кадры)                      : 0.013
Размер потока                            : 18,0 Мбайт (73%)
Размер потока оригинала                  : 18,0 Мбайт (73%)
Язык                                     : English
Дата кодирования                         : UTC 2014-01-07 19:28:27
Дата пометки                             : UTC 2014-01-07 19:28:27
Основные цвета                           : BT.709
Характеристики трансфера                 : BT.709
Коэффициенты матрицы                     : BT.709
mdhd_Duration                            : 982269
Аудио
Идентификатор                            : 2
Формат                                   : AAC
Формат/Информация                        : Advanced Audio Codec
Профиль формата                          : LC
Идентификатор кодека                     : 40
Продолжительность                        : 16 м.
Продолжительность оригинала              : 16 м.
Вид битрейта                             : Постоянный
Битрейт                                  : 53,6 Кбит/сек
Каналы                                   : 2 канала
Расположение каналов                     : Front: L R
Частота                                  : 44,1 КГц
Метод сжатия                             : С потерями
Размер потока                            : 6,28 Мбайт (26%)
Размер потока оригинала                  : 6,28 Мбайт (26%)
Язык                                     : English
Дата кодирования                         : UTC 2014-01-07 19:28:27
Дата пометки                             : UTC 2014-01-07 19:28:27
mdhd_Duration                            : 981883
Код:
Общее
Полное имя                               : C:\Максим Соколов - Web-мастер Adobe Muse - 2014\08_Свойства сайта, ключевики, парсер Магадан\8_2_Ключивеки.mp4
Формат                                   : MPEG-4
Профиль формата                          : Base Media / Version 2
Идентификатор кодека                     : mp42
Размер файла                             : 14,9 Мбайт
Продолжительность                        : 7 м. 4 с.
Общий поток                              : 294 Кбит/сек
Дата кодирования                         : UTC 2014-01-13 10:04:56
Дата пометки                             : UTC 2014-01-13 10:04:56
Видео
Идентификатор                            : 1
Формат                                   : AVC
Формат/Информация                        : Advanced Video Codec
Профиль формата                          : [url=mailto:High@L3.2]High@L3.2[/url]
Параметр CABAC формата                   : Да
Параметр ReFrames формата                : 4 кадра
Параметр GOP формата                     : M=1, N=75
Идентификатор кодека                     : avc1
Идентификатор кодека/Информация          : Advanced Video Coding
Продолжительность                        : 7 м. 4 с.
Продолжительность оригинала              : 7 м. 4 с.
Битрейт                                  : 220 Кбит/сек
Ширина                                   : 1280 пикселей
Высота                                   : 794 пикселя
Соотношение сторон                       : 16:10
Режим частоты кадров                     : Постоянный
Частота кадров                           : 15,000 кадров/сек
Цветовое пространство                    : YUV
Субдискретизация насыщенности            : 4:2:0
Битовая глубина                          : 8 бит
Тип развёртки                            : Прогрессивная
Бит/(Пиксели*Кадры)                      : 0.014
Размер потока                            : 11,1 Мбайт (75%)
Размер потока оригинала                  : 12,1 Мбайт (81%)
Язык                                     : English
Дата кодирования                         : UTC 2014-01-13 10:04:56
Дата пометки                             : UTC 2014-01-13 10:04:56
Основные цвета                           : BT.709
Характеристики трансфера                 : BT.709
Коэффициенты матрицы                     : BT.709
mdhd_Duration                            : 424899
Аудио
Идентификатор                            : 2
Формат                                   : AAC
Формат/Информация                        : Advanced Audio Codec
Профиль формата                          : LC
Идентификатор кодека                     : 40
Продолжительность                        : 7 м. 4 с.
Продолжительность оригинала              : 7 м. 4 с.
Вид битрейта                             : Постоянный
Битрейт                                  : 53,6 Кбит/сек
Каналы                                   : 2 канала
Расположение каналов                     : Front: L R
Частота                                  : 44,1 КГц
Метод сжатия                             : С потерями
Размер потока                            : 2,71 Мбайт (18%)
Размер потока оригинала                  : 2,71 Мбайт (18%)
Язык                                     : English
Дата кодирования                         : UTC 2014-01-13 10:04:56
Дата пометки                             : UTC 2014-01-13 10:04:56
mdhd_Duration                            : 424942
Скриншоты:
Скачать .torrent

Для того, чтобы скачать торрент-файл

Максим Соколов - Мастер Adobe Muse (2014)

с нашего сайта, Вам необходимо Войти на сайт под своим логином! Если у Вас ещё нет логина, тогда Вам нужно сначала Зарегистрироваться!

Как скачивать? · Что такое торрент? · Рейтинг и ограничения

Показать сообщения:    
Ответить на тему

Максим Соколов - Мастер Adobe Muse (2014) скачать торрент (torrent), видеоуроки, тренинги, обучающее видео и видеокурсы

Текущее время: Сегодня 14:42

Часовой пояс: GMT + 4



Вы не можете начинать темы
Вы не можете отвечать на сообщения
Вы не можете редактировать свои сообщения
Вы не можете удалять свои сообщения
Вы не можете голосовать в опросах
Вы не можете прикреплять файлы к сообщениям
Вы не можете скачивать файлы