Последнее из V.I.P.-раздела

19-Ноя-19 06:59
19-Ноя-19 06:58
19-Ноя-19 06:54
19-Ноя-19 06:49
19-Ноя-19 06:47
19-Ноя-19 06:46
19-Ноя-19 06:37
19-Ноя-19 06:35
19-Ноя-19 06:30
19-Ноя-19 06:25

Profileschool - Пейзажная симфония (2013)

Ответить на тему
 
Автор Сообщение

Yulya ®

-Profileschool - Пейзажная симфония (2013)- Автор (режиссер): "profileschool"
Ведущий: Александр Киценко
Жанр: Мастер-класс
Продолжительность: 3:41:14
Качество видео: PCRec
Видеокодек: Xvid
Битрейт видео: ~30fps 534Kbps
Размер кадра: 1920x1080
Аудиокодек: MP3
Битрейт аудио: 44100Hz stereo 128kbps
Доп. материалы: Имеются
Описание:
Многие даже не задумываются, что скрывается под словом «пейзаж», не говоря уже о том, благодаря каким таинствам он появляется перед нашими глазами в виде фотографий. Именно этим вопросам и будет посвящена первая часть мастер-класса Александра Киценко. Во второй части мы познакомимся с его авторской методикой художественной ретуши пейзажных фотографий, в которой будут раскрыты основные принципы улучшения и коррекции пейзажных фотографий в Adobe Photoshop.

Дополнительная информация:

Программа мастер-класса
Часть первая.
● Где живут пейзажи. Мир глазами автора.
● Поиск и осмысление сюжета.
● Свет, цвет и формы в пейзажной фотографии.
● Моя фототехника.
● Композиция в пейзажной фотографии. Любимые приемы.
● Передача объема на плоскости.
● Простые советы по съемке панорам.
● Технические уловки.
● Погода для фотографа. Времена года.
Часть вторая.
● Оценка исходного качества фотографии.
● «Проявка» RAW файла в Adobe Camera RAW.
● Расширение динамического диапазона снимка из нескольких файлов и из одного файла.
● Художественная ретушь фотографий в Adobe Photoshop:
    ○ Основные принципы ретуши.
    ○ Инструменты.
    ○ Роль неоднородности корректирующих воздействий на изображение.
    ○ Поиск и усиление «вкусных» мест на фотографии.
    ○ Последовательная ретушь в светах и теневых участках: локальная и общая коррекции.
    ○ Роль контраста в изображении, подчеркивание тональной перспективы.
    ○ Цветовая коррекция.
    ○ Подготовка фотографий для публикации в интернете.

MI

Общее
Полное имя : D:\Торренты\Пейзажная симфония\Часть 1.avi
Формат : AVI
Формат/Информация : Audio Video Interleave
Размер файла : 521 Мбайт
Продолжительность : 1 ч. 48 м.
Общий поток : 674 Кбит/сек
Библиотека кодирования : VirtualDub build 35390/release
Видео
Идентификатор : 0
Формат : MPEG-4 Visual
Профиль формата : Advanced Simple@L5
Параметр BVOP формата : 1
Параметр QPel формата : Нет
Параметр GMC формата : Без точки перехода
Параметр матрицы формата : Default (MPEG)
Идентификатор кодека : XVID
Идентификатор кодека/Подсказка : XviD
Продолжительность : 1 ч. 48 м.
Битрейт : 534 Кбит/сек
Ширина : 1920 пикселей
Высота : 1080 пикселей
Соотношение сторон : 16:9
Частота кадров : 30,000 кадров/сек
Цветовое пространство : YUV
Субдискретизация насыщенности : 4:2:0
Битовая глубина : 8 бит
Тип развёртки : Прогрессивная
Метод сжатия : С потерями
Бит/(Пиксели*Кадры) : 0.009
Размер потока : 413 Мбайт (79%)
Библиотека кодирования : XviD 64
Аудио
Идентификатор : 1
Формат : MPEG Audio
Версия формата : Version 1
Профиль формата : Layer 3
Режим : Joint stereo
Расширение режима : MS Stereo
Идентификатор кодека : 55
Идентификатор кодека/Подсказка : MP3
Продолжительность : 1 ч. 48 м.
Вид битрейта : Постоянный
Битрейт : 128 Кбит/сек
Каналы : 2 канала
Частота : 44,1 КГц
Метод сжатия : С потерями
Размер потока : 99,0 Мбайт (19%)
Выравнивание : Разделение по промежуткам
Продолжительность промежутка : 33 мс. (1,00 видеокадр)
Время предзагрузки промежутка : 500 мс.
Библиотека кодирования : LAME3.99.5
Скриншоты:
Скачать .torrent

Для того, чтобы скачать торрент-файл

Profileschool - Пейзажная симфония (2013)

с нашего сайта, Вам необходимо Войти на сайт под своим логином! Если у Вас ещё нет логина, тогда Вам нужно сначала Зарегистрироваться!

Как скачивать? · Что такое торрент? · Рейтинг и ограничения

Показать сообщения:    
Ответить на тему

Profileschool - Пейзажная симфония (2013) скачать торрент (torrent), видеоуроки, тренинги, обучающее видео и видеокурсы

Текущее время: Сегодня 01:35

Часовой пояс: GMT + 4



Вы не можете начинать темы
Вы не можете отвечать на сообщения
Вы не можете редактировать свои сообщения
Вы не можете удалять свои сообщения
Вы не можете голосовать в опросах
Вы не можете прикреплять файлы к сообщениям
Вы не можете скачивать файлы