CBS - SQL для начинающих (2013)

Ответить на тему
 
Автор Сообщение

Yulya ®

-CBS - SQL для начинающих (2013)- Автор (режиссер): CBS
Жанр: Программирование
Продолжительность: 08:51:04
Качество видео: PCRec
Видеокодек: AVC
Битрейт видео: ~79,0 kb/s, 10,000 FPS
Размер кадра: 1280x712
Аудиокодек: AAC
Битрейт аудио: 61,7 kb/s (CBR), 2 Ch, 44100 Hz
Описание:
SQL - это язык структурированных запросов, применяемый для создания, модификации и управления данными в реляционных базах данных.
Курс SQL Essential состоит из 9-ти уроков позволяющих начинающим разработчикам освоить все основные концепции программирования под SQL Server 2012 R2, данный курс так же рассматривает оптимизацию SQL Server, советы при разработке, задачи администрирования, что будет полезным и для опытных разработчиков.

Программа курса:

  • Урок 1. Введение в SQL
    › Основные понятия баз данных.
    › Объекты реляционной базы данных.
    › Ознакомление с Management Studio.
    › Типы данных T-SQL.
  • Урок 2. T-SQL, Запросы.
    › Что такое SQL, T-SQL.
    › Что такое DML.
    › Основные запросы языка DML: SELECT, INSERT, UPDATE, DELETE.
    › Дальнейшее освоение средств Management Studio.
  • Урок 3. Основы DDL.
    › Что такое DDL.
    › Основные запросы языка DDL: CREATE, ALTER, DROP.
    › Понятия пользовательских ограничений, первичного и внешнего ключа.
    › Типы связей.
  • 4. Проектирование БД.
    › Нормализация.
    › Освоение визуальных средств проектирования баз данных.
  • Урок 5. JOIN-s.
    › Рассмотрение внутренних соединений.
    › Рассмотрение внешних соединений.
    › Рассмотрение объединений.
  • Урок 6. Вложенные запросы.
    › Вложенные запросы
    › Связанные вложенные запросы.
    › Работа с курсорам.
  • Урок 7. Индексирование.
    › Организация памяти БД.
    › В-деревья.
    › Рассмотрение всех видов индексов.
  • Урок 8. Представления. Хранимые процедуры. Пользовательские функции.
    › Представления.
    › Условные конструкции, циклы, обработка сообщений об ошибках.
    › Хранимые процедуры.
    › Функции.
  • Урок 9. Транзакции. Триггеры.
    › Транзакции.
    › Механизмы отката транзакций.
    › Триггеры.

По завершению курса Вы сможете:

  • Проектировать базы данных
  • Манипулировать с данными при помощи запросов
  • Индексировать данные
  • Создавать и работать с представлениями
  • Создавать поисковые запросы для иерархических конструкций
  • Создавать функции и процедуры
  • Работать с триггерами
  • Оптимизировать базы данных
  • Администрировать базы данных
  • Строить модели данных

MediaInfo:

  • Общее
    Полное имя : D:\Раздача\CBSystematics. SQL Essential (2013)\01. Введение в SQL.mp4
    Формат : MPEG-4
    Профиль формата : Base Media
    Идентификатор кодека : isom
    Размер файла : 61,8 Мбайт
    Продолжительность : 59 м.
    Общий поток : 146 Кбит/сек
    Программа кодирования : Lavf55.19.104
  • Видео
    Идентификатор : 1
    Формат : AVC
    Формат/Информация : Advanced Video Codec
    Профиль формата : [url=mailto:High@L3.1]High@L3.1[/url]
    Параметр CABAC формата : Да
    Параметр ReFrames формата : 4 кадра
    Идентификатор кодека : avc1
    Идентификатор кодека/Информация : Advanced Video Coding
    Продолжительность : 59 м.
    Битрейт : 79,0 Кбит/сек
    Ширина : 1280 пикселей
    Высота : 712 пикселей

    Соотношение сторон : 16:9
    Режим частоты кадров : Постоянный
    Частота кадров : 10,000 кадров/сек
    Цветовое пространство : YUV
    Субдискретизация насыщенности : 4:2:0
    Битовая глубина : 8 бит
    Тип развёртки : Прогрессивная
    Бит/(Пиксели*Кадры) : 0.009
    Размер потока : 33,5 Мбайт (54%)
    Язык : English
  • Аудио
    Идентификатор : 2
    Формат : AAC
    Формат/Информация : Advanced Audio Codec
    Профиль формата : LC
    Идентификатор кодека : 40
    Продолжительность : 59 м.
    Вид битрейта : Постоянный
    Битрейт : 61,7 Кбит/сек
    Каналы : 2 канала
    Расположение каналов : Front: L R
    Частота : 44,1 КГц

    Метод сжатия : С потерями
    Размер потока : 26,2 Мбайт (42%)
    Язык : English
Скриншоты:
Скачать .torrent

Для того, чтобы скачать торрент-файл

CBS - SQL для начинающих (2013)

с нашего сайта, Вам необходимо Войти на сайт под своим логином! Если у Вас ещё нет логина, тогда Вам нужно сначала Зарегистрироваться!

Как скачивать? · Что такое торрент? · Рейтинг и ограничения

Показать сообщения:    
Ответить на тему

CBS - SQL для начинающих (2013) скачать торрент (torrent), видеоуроки, тренинги, обучающее видео и видеокурсы

Текущее время: Сегодня 07:16

Часовой пояс: GMT + 4



Вы не можете начинать темы
Вы не можете отвечать на сообщения
Вы не можете редактировать свои сообщения
Вы не можете удалять свои сообщения
Вы не можете голосовать в опросах
Вы не можете прикреплять файлы к сообщениям
Вы не можете скачивать файлы