Последнее из V.I.P.-раздела

10-Авг
10-Авг
10-Авг
10-Авг
10-Авг
10-Авг
10-Авг
10-Авг
10-Авг
10-Авг
10-Авг
10-Авг
10-Авг
10-Авг
10-Авг
10-Авг
10-Авг
09-Авг
09-Авг
09-Авг

Новости о коронавирусе

ITVDN - HTML & CSS (2014)

Ответить на тему
 
Автор Сообщение

Yulya ®

-ITVDN - HTML & CSS (2014)- Автор (режиссер): ITVDN
Жанр: Обучающие видео-уроки
Продолжительность: 09:42:42
Качество видео: PCRec
Видеокодек: AVC
Битрейт видео: ~103 - 130 kb/s
Размер кадра: 1280x688
Аудиокодек: AAC
Битрейт аудио: 126 kb/s, 2 Ch
Доп. материалы: Есть
Описание:
На этом видеокурсе Вы сможете изучить язык разметки HTML. Вы узнаете основные понятия этого языка, научитесь работать с изображениями, таблицами, списками, Вы узнаете что такое слой div, как производится верстка страниц с помощью слоев. Так же в видео курсе рассматривается работа с таблицами стелей CSS, работа с формами и многое другое.

Программа курса:

Урок 1
Введение в HTML
Урок познакомит Вас с языком разметки гипертекста HTML, его основными терминами, понятиями и составляющими.
Урок 2
Работа с изображениями
Урок призван познакомить Вас с особенностями работы с изображением в разметке Вашей страницы и раскрыть основные моменты работы с ним.
Урок 3
Таблицы и списки
Урок призван познакомить слушателей с особенностями создания таблиц и списков на веб-страницах и рассказать о тегах которые для этого применяются.
Урок 4
Теги div и span
Урок призван познакомить слушателей с понятием слоя в языке HTML и продемонстрировать основные особенности работы со слоями с использованием тега div, а также показать возможности тега span при форматировании текста.
Урок 5
Таблицы стилей CSS
Урок призван познакомить слушателей с каскадной таблицей стилей (Cascading Style Sheets), с помощью которой можно легко и удобно задавать стиль всей веб-странице.
Урок 6
Метатеги и верстка страниц
Урок призван познакомить слушателей с понятием метатегов, продемонстрировать область их применения и способы их задания, а также более детально рассмотреть тему верстки страниц.
Урок 7
Формы
Урок призван познакомить слушателей с понятием форм в HTML и продемонстрировать практические примеры для их применения.
Урок 8
Верстка веб-страницы
Урок призван продемонстрировать слушателям пример создания веб-страницы с нуля, показав весь алгоритм шаг за шагом.

MediaInfo:

Код:
Общее
Полное имя                               : C:\ITVDN - HTML & CSS - 2014\Урок 4. Теги div и span.mp4
Формат                                   : MPEG-4
Профиль формата                          : Base Media / Version 2
Идентификатор кодека                     : mp42
Размер файла                             : 95,9 Мбайт
Продолжительность                        : 58 м.
Режим общего битрейта                    : Переменный
Общий поток                              : 231 Кбит/сек
Дата кодирования                         : UTC 2014-04-19 03:40:15
Дата пометки                             : UTC 2014-04-19 03:40:15
Видео
Идентификатор                            : 1
Формат                                   : AVC
Формат/Информация                        : Advanced Video Codec
Профиль формата                          : [url=mailto:Main@L3.1]Main@L3.1[/url]
Параметр CABAC формата                   : Да
Параметр ReFrames формата                : 3 кадра
Идентификатор кодека                     : avc1
Идентификатор кодека/Информация          : Advanced Video Coding
Продолжительность                        : 58 м.
Продолжительность оригинала              : 58 м.
Битрейт                                  : 103 Кбит/сек
Ширина                                   : 1280 пикселей
Высота                                   : 688 пикселей
Соотношение сторон                       : 1,85:1
Режим частоты кадров                     : Переменный
Частота кадров                           : 30,000 кадров/сек
Минимальная частота кадров               : 30,000 кадров/сек
Максимальная частота кадров              : 30,030 кадров/сек
Стандарт вещания                         : NTSC
Цветовое пространство                    : YUV
Субдискретизация насыщенности            : 4:2:0
Битовая глубина                          : 8 бит
Тип развёртки                            : Прогрессивная
Бит/(Пиксели*Кадры)                      : 0.004
Размер потока                            : 42,7 Мбайт (44%)
Размер потока оригинала                  : 42,7 Мбайт (44%)
Язык                                     : English
Дата кодирования                         : UTC 2014-04-19 03:40:15
Дата пометки                             : UTC 2014-04-19 03:40:15
mdhd_Duration                            : 3480367
Аудио
Идентификатор                            : 2
Формат                                   : AAC
Формат/Информация                        : Advanced Audio Codec
Профиль формата                          : LC
Идентификатор кодека                     : 40
Продолжительность                        : 58 м.
Продолжительность оригинала              : 58 м.
Вид битрейта                             : Переменный
Битрейт                                  : 126 Кбит/сек
Максимальный битрейт                     : 229 Кбит/сек
Каналы                                   : 2 канала
Расположение каналов                     : Front: L R
Частота                                  : 44,1 КГц
Метод сжатия                             : С потерями
Размер потока                            : 52,1 Мбайт (54%)
Размер потока оригинала                  : 52,1 Мбайт (54%)
Язык                                     : English
Дата кодирования                         : UTC 2014-04-19 03:40:15
Дата пометки                             : UTC 2014-04-19 03:40:15
mdhd_Duration                            : 3480393
Код:
Общее
Полное имя                               : C:\ITVDN - HTML & CSS - 2014\Урок 1. Введение.mp4
Формат                                   : MPEG-4
Профиль формата                          : Base Media / Version 2
Идентификатор кодека                     : mp42
Размер файла                             : 102 Мбайт
Продолжительность                        : 55 м.
Режим общего битрейта                    : Переменный
Общий поток                              : 259 Кбит/сек
Дата кодирования                         : UTC 2014-04-18 05:30:45
Дата пометки                             : UTC 2014-04-18 05:30:45
Видео
Идентификатор                            : 1
Формат                                   : AVC
Формат/Информация                        : Advanced Video Codec
Профиль формата                          : [url=mailto:Main@L3.1]Main@L3.1[/url]
Параметр CABAC формата                   : Да
Параметр ReFrames формата                : 3 кадра
Идентификатор кодека                     : avc1
Идентификатор кодека/Информация          : Advanced Video Coding
Продолжительность                        : 55 м.
Продолжительность оригинала              : 55 м.
Битрейт                                  : 130 Кбит/сек
Ширина                                   : 1280 пикселей
Высота                                   : 688 пикселей
Соотношение сторон                       : 1,85:1
Режим частоты кадров                     : Переменный
Частота кадров                           : 30,000 кадров/сек
Минимальная частота кадров               : 30,000 кадров/сек
Максимальная частота кадров              : 30,030 кадров/сек
Стандарт вещания                         : NTSC
Цветовое пространство                    : YUV
Субдискретизация насыщенности            : 4:2:0
Битовая глубина                          : 8 бит
Тип развёртки                            : Прогрессивная
Бит/(Пиксели*Кадры)                      : 0.005
Размер потока                            : 51,6 Мбайт (50%)
Размер потока оригинала                  : 51,6 Мбайт (50%)
Язык                                     : English
Дата кодирования                         : UTC 2014-04-18 05:30:46
Дата пометки                             : UTC 2014-04-18 05:30:46
mdhd_Duration                            : 3315267
Аудио
Идентификатор                            : 2
Формат                                   : AAC
Формат/Информация                        : Advanced Audio Codec
Профиль формата                          : LC
Идентификатор кодека                     : 40
Продолжительность                        : 55 м.
Продолжительность оригинала              : 55 м.
Вид битрейта                             : Переменный
Битрейт                                  : 126 Кбит/сек
Максимальный битрейт                     : 221 Кбит/сек
Каналы                                   : 2 канала
Расположение каналов                     : Front: L R
Частота                                  : 44,1 КГц
Метод сжатия                             : С потерями
Размер потока                            : 49,7 Мбайт (49%)
Размер потока оригинала                  : 49,7 Мбайт (49%)
Язык                                     : English
Дата кодирования                         : UTC 2014-04-18 05:30:46
Дата пометки                             : UTC 2014-04-18 05:30:46
mdhd_Duration                            : 3315299
Скриншоты:
Скачать .torrent

Для того, чтобы скачать торрент-файл

ITVDN - HTML & CSS (2014)

с нашего сайта, Вам необходимо Войти на сайт под своим логином! Если у Вас ещё нет логина, тогда Вам нужно сначала Зарегистрироваться!

Как скачивать? · Что такое торрент? · Рейтинг и ограничения

Показать сообщения:    
Ответить на тему

ITVDN - HTML & CSS (2014) скачать торрент (torrent), видеоуроки, тренинги, обучающее видео и видеокурсы

Текущее время: Сегодня 02:51

Часовой пояс: GMT + 4



Вы не можете начинать темы
Вы не можете отвечать на сообщения
Вы не можете редактировать свои сообщения
Вы не можете удалять свои сообщения
Вы не можете голосовать в опросах
Вы не можете прикреплять файлы к сообщениям
Вы не можете скачивать файлы