HTML Academy - Интенсив по профессиональной верстке сайтов (2014)

Ответить на тему
 
Автор Сообщение

Yulya ®

-HTML Academy - Интенсив по профессиональной верстке сайтов (2014)- Автор (режиссер): HTML Academy
Жанр: Обучающие видео-уроки
Продолжительность: 13:18:54
Качество видео: PCRec
Видеокодек: AVC
Битрейт видео: ~455 - 942 kb/s
Размер кадра: 660x720, 1280x720
Аудиокодек: AAC
Битрейт аудио: 192 kb/s, 2 Ch
Доп. материалы: Есть
Описание:
Что вы получите от обучения.
Профессиональные навыки.
Полученные навыки позволят вам эффективного решать типовые профессиональные задачи HTML-верстальщика. Вы научитесь создавать современные веб-интерфейсы, работать с живым кодом, использовать новейшие технологии.
Старт карьеры.
Полученный уровень подготовки позволит с легкостью начать работать HTML-верстальщиком или другим интернет-специалистом (прототипировщиком, интернет-маркетологом, контент-менеджером, seo-специалистом).
Повышение эффективности.
Если вы уже работаете в смежной IT-области: менеджером проектов, интернет-маркетологом, веб-дизайнером, то полученные навыки позволят вам существенно повысить свою эффективность. Например, вы сможете быстрее и точнее оценивать сложность задач, самостоятельно создавать посадочные страницы и так далее.
Качественный сайт своими руками.
В процессе обучения вы создадите свой сайт, выполненный в соответствии со всеми профессиональными стандартами. После чего вы разместите его в интернете.

Программа интенсива:

В течение интенсива ученики с нуля сверстают как минимум два макета. Учебный макет будет общим для всех, над ним вы будете работать вместе с преподавателем на вебинарах.
Помимо учебного макета будет два варианта более сложных личных макетов. Над личными макетами вы будете работать и самостоятельно, и в паре с персональным наставником.
1 раздел: вводный
2 раздел: разметка
3 раздел: сетки
4 раздел: фотошоп, графика, стили текста
5 раздел: декоративные элементы и мелкие детали
6 раздел: оформление контента
7 раздел: полировка и оптимизация
8 раздел: куда расти дальше?

MediaInfo:

Код:
Общее
Полное имя                               : C:\HTML Academy - Интенсив по профессиональной верстке сайтов - 2014\2 интенсив, 1 раздел - демонстрация работы с хостингом.mp4
Формат                                   : MPEG-4
Профиль формата                          : Base Media / Version 2
Идентификатор кодека                     : mp42
Размер файла                             : 31,5 Мбайт
Продолжительность                        : 5 м. 18 с.
Режим общего битрейта                    : Переменный
Общий поток                              : 830 Кбит/сек
Дата кодирования                         : UTC 2014-01-22 20:54:00
Дата пометки                             : UTC 2014-01-22 20:54:00
gsst                                     : 0
gstd                                     : 318670
gssd                                     : B4A7DDA85MH1392321448573670
gshh                                     : r5---sn-4g57kue6.googlevideo.com
Видео
Идентификатор                            : 1
Формат                                   : AVC
Формат/Информация                        : Advanced Video Codec
Профиль формата                          : [url=mailto:High@L3.1]High@L3.1[/url]
Параметр CABAC формата                   : Да
Параметр ReFrames формата                : 1 кадр
Параметр GOP формата                     : M=1, N=60
Идентификатор кодека                     : avc1
Идентификатор кодека/Информация          : Advanced Video Coding
Продолжительность                        : 5 м. 18 с.
Битрейт                                  : 636 Кбит/сек
Максимальный битрейт                     : 9797 Кбит/сек
Ширина                                   : 660 пикселей
Высота                                   : 720 пикселей
Соотношение сторон                       : 0,917
Режим частоты кадров                     : Постоянный
Частота кадров                           : 30,000 кадров/сек
Цветовое пространство                    : YUV
Субдискретизация насыщенности            : 4:2:0
Битовая глубина                          : 8 бит
Тип развёртки                            : Прогрессивная
Бит/(Пиксели*Кадры)                      : 0.045
Размер потока                            : 24,1 Мбайт (77%)
Дата пометки                             : UTC 2014-01-22 20:54:01
Аудио
Идентификатор                            : 2
Формат                                   : AAC
Формат/Информация                        : Advanced Audio Codec
Профиль формата                          : LC
Идентификатор кодека                     : 40
Продолжительность                        : 5 м. 18 с.
Вид битрейта                             : Переменный
Битрейт                                  : 192 Кбит/сек
Максимальный битрейт                     : 201 Кбит/сек
Каналы                                   : 2 канала
Расположение каналов                     : Front: L R
Частота                                  : 44,1 КГц
Метод сжатия                             : С потерями
Размер потока                            : 7,29 Мбайт (23%)
Заголовок                                : IsoMedia File Produced by Google, 5-11-2011
Дата кодирования                         : UTC 2014-01-22 20:54:00
Дата пометки                             : UTC 2014-01-22 20:54:01
Код:
Общее
Полное имя                               : C:\HTML Academy - Интенсив по профессиональной верстке сайтов - 2014\2 интенсив, 1 раздел - запись вебинара.mp4
Формат                                   : MPEG-4
Профиль формата                          : Base Media / Version 2
Идентификатор кодека                     : mp42
Размер файла                             : 873 Мбайт
Продолжительность                        : 1 ч. 47 м.
Режим общего битрейта                    : Переменный
Общий поток                              : 1137 Кбит/сек
Дата кодирования                         : UTC 2014-01-22 21:23:40
Дата пометки                             : UTC 2014-01-22 21:23:40
gsst                                     : 0
gstd                                     : 6446741
gssd                                     : B4A7DDA28MH1392321425854517
gshh                                     : r8---sn-4g57kuel.googlevideo.com
Видео
Идентификатор                            : 1
Формат                                   : AVC
Формат/Информация                        : Advanced Video Codec
Профиль формата                          : [url=mailto:High@L3.1]High@L3.1[/url]
Параметр CABAC формата                   : Да
Параметр ReFrames формата                : 1 кадр
Параметр GOP формата                     : M=1, N=60
Идентификатор кодека                     : avc1
Идентификатор кодека/Информация          : Advanced Video Coding
Продолжительность                        : 1 ч. 47 м.
Битрейт                                  : 942 Кбит/сек
Максимальный битрейт                     : 2851 Кбит/сек
Ширина                                   : 1280 пикселей
Высота                                   : 720 пикселей
Соотношение сторон                       : 16:9
Режим частоты кадров                     : Постоянный
Частота кадров                           : 30,000 кадров/сек
Цветовое пространство                    : YUV
Субдискретизация насыщенности            : 4:2:0
Битовая глубина                          : 8 бит
Тип развёртки                            : Прогрессивная
Бит/(Пиксели*Кадры)                      : 0.034
Размер потока                            : 724 Мбайт (83%)
Дата пометки                             : UTC 2014-01-22 21:27:43
Аудио
Идентификатор                            : 2
Формат                                   : AAC
Формат/Информация                        : Advanced Audio Codec
Профиль формата                          : LC
Идентификатор кодека                     : 40
Продолжительность                        : 1 ч. 47 м.
Вид битрейта                             : Переменный
Битрейт                                  : 192 Кбит/сек
Максимальный битрейт                     : 201 Кбит/сек
Каналы                                   : 2 канала
Расположение каналов                     : Front: L R
Частота                                  : 44,1 КГц
Метод сжатия                             : С потерями
Размер потока                            : 148 Мбайт (17%)
Заголовок                                : IsoMedia File Produced by Google, 5-11-2011
Дата кодирования                         : UTC 2014-01-22 21:25:57
Дата пометки                             : UTC 2014-01-22 21:27:43
Скриншоты:
Скачать .torrent

Для того, чтобы скачать торрент-файл

HTML Academy - Интенсив по профессиональной верстке сайтов (2014)

с нашего сайта, Вам необходимо Войти на сайт под своим логином! Если у Вас ещё нет логина, тогда Вам нужно сначала Зарегистрироваться!

Как скачивать? · Что такое торрент? · Рейтинг и ограничения

Показать сообщения:    
Ответить на тему

HTML Academy - Интенсив по профессиональной верстке сайтов (2014) скачать торрент (torrent), видеоуроки, тренинги, обучающее видео и видеокурсы

Текущее время: Сегодня 02:58

Часовой пояс: GMT + 4



Вы не можете начинать темы
Вы не можете отвечать на сообщения
Вы не можете редактировать свои сообщения
Вы не можете удалять свои сообщения
Вы не можете голосовать в опросах
Вы не можете прикреплять файлы к сообщениям
Вы не можете скачивать файлы