Павел Буянкин - Mac OS X - эксперт (2013)

Ответить на тему
 
Автор Сообщение

Yulya ®

-Павел Буянкин - Mac OS X - эксперт (2013)- Автор (режиссер): Павел Буянкин
Жанр: Обучающие видео-уроки
Продолжительность: 02:58:27
Качество видео: PCRec
Видеокодек: AVC
Битрейт видео: ~529 - 5301 kb/s
Размер кадра: 1280x720
Аудиокодек: AAC
Битрейт аудио: 40 - 53,1 kb/s, 2 Ch
Доп. материалы: Есть
Описание:
Подготовленный совместно с издательством Spring publishing обучающий курс Mac OS X – эксперт, раскроет перед вами все тонкости и нюансы работы с вашим компьютером Mac с полного нуля.
Наши курсы уже стали лучшими руководствами по работе с продукцией Apple. Сотни довольных людей таких же как и вы получившие реальный результат всего за несколько дней.
Mac OS X – эксперт – это пошаговые инструкции о том, как освоить свой компьютер Mac максимально легко и быстро. Целых пять разделов, которые охватывают абсолютно все аспекты использования операционной системы Mac OS X в доступном формате.
Главная особенность данного курса в том, что он записан на примере использования настоящего компьютера Mac. Это значит, что вы будете видеть, как происходит его настройка и использование в реальном времени.
Вам останется только выполнять те же шаги, но только уже на своем компьютере. Таким образом, вы на 100% достигните успеха.

Содержание:

Установка и знакомство с интерфейсом.
Первым шагом нашего обучения будет установка операционной системы Mac OS X с полного нуля. Вы узнаете, что нам для этого потребуется, как активировать систему после установки и что должно появится в результате успешного завершения.
Для каждого этапа отведен один отдельный урок, что заметным образом облегчит процесс обучения.
Настройка системы.
Как только операционная система будет установлена, ее нужно правильно настроить - этим мы и займемся в этом разделе. Мы рассмотрим основные настройки, которые помогут обеспечить более комфортную и эффективную работу с компьютером Mac.
Стандартные приложения.
Здесь мы поговорим о стандартных приложениях и утилитах, которые изначально есть в Mac OS X и которые могут значительно облегчить и улучшить вашу жизнь, как только вы познакомитесь с ними поближе. А также вы узнаете как создать Apple iD, который вам понадобится для использования всех сервисов Apple.
Популярные приложения.
Все настройки произведены, стандартные приложения рассмотрены - время узнать как устанавливать новые приложения, которые сделают вашу работу с компьютером Mac еще более приятной и по-настоящему безграничной. Мы рассмотрим более 10 приложений, без которых просто не обойтись любому пользователю Mac.
Обеспечение безопасности.
Хотя Mac OS X и является самой безопасной операционной системой в мире, однако здесь вы узнаете как можно дополнительно усилить ее безопасность, как минимум, в несколько раз, что позволит добиться ее долгой и стабильной работы в течении нескольких лет.
Бонус. Лучшие приложения для Mac OS X.
Где взять самые популярные приложения для своего компьютера Mac? Какие приложения сделают операционную систему Mac OS X еще более полезной и интересной? Есть ли аналоги компьютерных программ Windows для Mac OS X? Какими приложениями пользуются миллионы людей по всему миру?
Именно эти вопросы задает себе абсолютно каждый пользователь компьютера Mac. Но только не многие находят на них ответы. Поэтому вам просто необходимо иметь у себя под рукой сборник таких приложений.
В этот дополнительный бонус мы собрали лучшие приложения, которые на наш взгляд, должен иметь у себя абсолютно каждый уважающий себя пользователь компьютера Mac.
Установив их единожды вы уже не сможете от них оторваться и будете использовать их ежедневно. Ведь именно благодаря им вы почувствуете на что по-настоящему способен ваш компьютер Mac и удивитесь, как не использовали их раньше.

MediaInfo:

Код:
Общее
Полное имя                               : C:\Буянкин П. - Mac OS X эксперт - 2013\video\standart\lesson2\lesson2.mp4
Формат                                   : MPEG-4
Профиль формата                          : Base Media / Version 2
Идентификатор кодека                     : mp42
Размер файла                             : 21,5 Мбайт
Продолжительность                        : 4 м. 56 с.
Режим общего битрейта                    : Переменный
Общий поток                              : 610 Кбит/сек
Дата кодирования                         : UTC 2013-01-21 21:24:26
Дата пометки                             : UTC 2013-01-21 21:24:26
Видео
Идентификатор                            : 1
Формат                                   : AVC
Формат/Информация                        : Advanced Video Codec
Профиль формата                          : [url=mailto:High@L4.1]High@L4.1[/url]
Параметр CABAC формата                   : Да
Параметр ReFrames формата                : 4 кадра
Идентификатор кодека                     : avc1
Идентификатор кодека/Информация          : Advanced Video Coding
Продолжительность                        : 4 м. 56 с.
Продолжительность оригинала              : 4 м. 56 с.
Вид битрейта                             : Переменный
Битрейт                                  : 529 Кбит/сек
Максимальный битрейт                     : 20,0 Мбит/сек
Ширина                                   : 1280 пикселей
Высота                                   : 720 пикселей
Соотношение сторон                       : 16:9
Режим частоты кадров                     : Постоянный
Частота кадров                           : 30,000 кадров/сек
Стандарт вещания                         : NTSC
Цветовое пространство                    : YUV
Субдискретизация насыщенности            : 4:2:0
Битовая глубина                          : 8 бит
Тип развёртки                            : Прогрессивная
Бит/(Пиксели*Кадры)                      : 0.019
Размер потока                            : 18,7 Мбайт (87%)
Размер потока оригинала                  : 19,7 Мбайт (91%)
Язык                                     : English
Дата кодирования                         : UTC 2013-01-21 21:24:26
Дата пометки                             : UTC 2013-01-21 21:24:26
Основные цвета                           : BT.709
Характеристики трансфера                 : BT.709
Коэффициенты матрицы                     : BT.709
mdhd_Duration                            : 296216
Аудио
Идентификатор                            : 2
Формат                                   : AAC
Формат/Информация                        : Advanced Audio Codec
Профиль формата                          : LC
Идентификатор кодека                     : 40
Продолжительность                        : 4 м. 56 с.
Продолжительность оригинала              : 4 м. 56 с.
Вид битрейта                             : Постоянный
Битрейт                                  : 48,0 Кбит/сек
Каналы                                   : 2 канала
Расположение каналов                     : Front: L R
Частота                                  : 44,1 КГц
Метод сжатия                             : С потерями
Размер потока                            : 1,75 Мбайт (8%)
Размер потока оригинала                  : 1,75 Мбайт (8%)
Язык                                     : English
Дата кодирования                         : UTC 2013-01-21 21:24:26
Дата пометки                             : UTC 2013-01-21 21:24:26
mdhd_Duration                            : 296259
Код:
Общее
Полное имя                               : C:\Буянкин П. - Mac OS X эксперт - 2013\video\install\lesson2\lesson2.mp4
Формат                                   : MPEG-4
Профиль формата                          : Base Media / Version 2
Идентификатор кодека                     : mp42
Размер файла                             : 78,7 Мбайт
Продолжительность                        : 1 м. 58 с.
Режим общего битрейта                    : Переменный
Общий поток                              : 5579 Кбит/сек
Дата кодирования                         : UTC 2013-01-20 21:00:24
Дата пометки                             : UTC 2013-01-20 21:00:24
Видео
Идентификатор                            : 1
Формат                                   : AVC
Формат/Информация                        : Advanced Video Codec
Профиль формата                          : [url=mailto:High@L4.1]High@L4.1[/url]
Параметр CABAC формата                   : Да
Параметр ReFrames формата                : 4 кадра
Параметр GOP формата                     : M=1, N=125
Идентификатор кодека                     : avc1
Идентификатор кодека/Информация          : Advanced Video Coding
Продолжительность                        : 1 м. 58 с.
Продолжительность оригинала              : 1 м. 58 с.
Вид битрейта                             : Переменный
Битрейт                                  : 5301 Кбит/сек
Максимальный битрейт                     : 20,0 Мбит/сек
Ширина                                   : 1280 пикселей
Высота                                   : 720 пикселей
Соотношение сторон                       : 16:9
Режим частоты кадров                     : Постоянный
Частота кадров                           : 25,000 кадров/сек
Стандарт вещания                         : PAL
Цветовое пространство                    : YUV
Субдискретизация насыщенности            : 4:2:0
Битовая глубина                          : 8 бит
Тип развёртки                            : Прогрессивная
Бит/(Пиксели*Кадры)                      : 0.230
Размер потока                            : 74,8 Мбайт (95%)
Размер потока оригинала                  : 78,0 Мбайт (99%)
Язык                                     : English
Дата кодирования                         : UTC 2013-01-20 21:00:24
Дата пометки                             : UTC 2013-01-20 21:00:24
Основные цвета                           : BT.709
Характеристики трансфера                 : BT.709
Коэффициенты матрицы                     : BT.709
mdhd_Duration                            : 118282
Аудио
Идентификатор                            : 2
Формат                                   : AAC
Формат/Информация                        : Advanced Audio Codec
Профиль формата                          : LC
Идентификатор кодека                     : 40
Продолжительность                        : 1 м. 58 с.
Продолжительность оригинала              : 1 м. 58 с.
Вид битрейта                             : Постоянный
Битрейт                                  : 48,0 Кбит/сек
Каналы                                   : 2 канала
Расположение каналов                     : Front: L R
Частота                                  : 44,1 КГц
Метод сжатия                             : С потерями
Размер потока                            : 703 Кбайт (1%)
Размер потока оригинала                  : 703 Кбайт (1%)
Язык                                     : English
Дата кодирования                         : UTC 2013-01-20 21:00:24
Дата пометки                             : UTC 2013-01-20 21:00:24
mdhd_Duration                            : 118297
Скриншоты:
Скачать .torrent

Для того, чтобы скачать торрент-файл

Павел Буянкин - Mac OS X - эксперт (2013)

с нашего сайта, Вам необходимо Войти на сайт под своим логином! Если у Вас ещё нет логина, тогда Вам нужно сначала Зарегистрироваться!

Как скачивать? · Что такое торрент? · Рейтинг и ограничения

donvital

Большое СПАСИБО!
Показать сообщения:    
Ответить на тему

Павел Буянкин - Mac OS X - эксперт (2013) скачать торрент (torrent), видеоуроки, тренинги, обучающее видео и видеокурсы

Текущее время: Сегодня 14:36

Часовой пояс: GMT + 4



Вы не можете начинать темы
Вы не можете отвечать на сообщения
Вы не можете редактировать свои сообщения
Вы не можете удалять свои сообщения
Вы не можете голосовать в опросах
Вы не можете прикреплять файлы к сообщениям
Вы не можете скачивать файлы