Scott Deardorff - Креативные техники художественной обработки портрета (2011)

Ответить на тему
 
Автор Сообщение

Yulya ®

-Scott Deardorff - Креативные техники художественной обработки портрета (2011)- Автор (режиссер): Scott Deardorff
Жанр: Обучающие видео-уроки
Язык: Русский
Продолжительность: 08:51:02
Качество видео: PCRec
Видеокодек: MPEG-4
Битрейт видео: ~4833 kb/s, 9764 kb/s
Размер кадра: 1280x720
Аудиокодек: PCM
Битрейт аудио: 1536 kb/s, 2 Ch
Доп. материалы: Есть
Описание:
Scott Deardorff рад представить вторую часть курса по цифровой живописи в Photoshop.
Scott Deardorff портретный художник, который применяет современные средства для создания классических портретов людей и животных. Все творческие работы мастера выполнены в традиционном художественном стиле. Он создает шедевр пользуясь цифровой краской на цифровом холсте. Основными инструментами портретиста являются компьютер, планшет и конечно же Adobe Photoshop.

MediaInfo:

Код:
Общее
Полное имя                               : C:\Креативные техники художественной обработки портрета - 2011\15. Final_Thoughts.MP4
Формат                                   : MPEG-4
Коммерческое название                    : XDCAM EX 35
Профиль формата                          : Base Media / Version 2
Идентификатор кодека                     : mp42
Размер файла                             : 236 Мбайт
Продолжительность                        : 5 м. 11 с.
Режим общего битрейта                    : Переменный
Общий поток                              : 6371 Кбит/сек
Дата кодирования                         : UTC 2014-04-04 14:54:45
Дата пометки                             : UTC 2014-04-04 14:54:45
Видео
Идентификатор                            : 1
Формат                                   : MPEG Video
Коммерческое название                    : XDCAM EX 35
Версия формата                           : Version 2
Профиль формата                          : Main@High
Параметр BVOP формата                    : Да
Параметр матрицы формата                 : Выборочная
Параметр GOP формата                     : M=3, N=12
Идентификатор кодека                     : 61
Продолжительность                        : 5 м. 11 с.
Вид битрейта                             : Переменный
Битрейт                                  : 4833 Кбит/сек
Максимальный битрейт                     : 35,0 Мбит/сек
Ширина                                   : 1280 пикселей
Высота                                   : 720 пикселей
Соотношение сторон                       : 16:9
Режим частоты кадров                     : Постоянный
Частота кадров                           : 23,976 кадра/сек
Стандарт вещания                         : Component
Цветовое пространство                    : YUV
Субдискретизация насыщенности            : 4:2:0
Битовая глубина                          : 8 бит
Тип развёртки                            : Прогрессивная
Метод сжатия                             : С потерями
Бит/(Пиксели*Кадры)                      : 0.219
Временной код первого кадра              : 00:00:00:00
Оригинал временного кода                 : Group of pictures header
Размер потока                            : 179 Мбайт (76%)
Язык                                     : English
Дата кодирования                         : UTC 2014-04-04 14:54:45
Дата пометки                             : UTC 2014-04-04 14:54:45
Основные цвета                           : BT.709
Характеристики трансфера                 : BT.709
Коэффициенты матрицы                     : BT.709
Аудио
Идентификатор                            : 2
Формат                                   : PCM
Параметр Endianness формата              : Big
Параметр Sign формата                    : Signed
Идентификатор кодека                     : twos
Продолжительность                        : 5 м. 11 с.
Вид битрейта                             : Постоянный
Битрейт                                  : 1536 Кбит/сек
Каналы                                   : 2 канала
Частота                                  : 48,0 КГц
Битовая глубина                          : 16 бит
Размер потока                            : 57,0 Мбайт (24%)
Язык                                     : English
Дата кодирования                         : UTC 2014-04-04 14:54:45
Дата пометки                             : UTC 2014-04-04 14:54:45
Код:
Общее
Полное имя                               : C:\Креативные техники художественной обработки портрета - 2011\06. Skin_Smooth.MP4
Формат                                   : MPEG-4
Коммерческое название                    : XDCAM EX 35
Профиль формата                          : Base Media / Version 2
Идентификатор кодека                     : mp42
Размер файла                             : 1,47 Гбайт
Продолжительность                        : 18 м.
Режим общего битрейта                    : Переменный
Общий поток                              : 11,3 Мбит/сек
Дата кодирования                         : UTC 2014-04-03 20:36:18
Дата пометки                             : UTC 2014-04-03 20:36:18
Видео
Идентификатор                            : 1
Формат                                   : MPEG Video
Коммерческое название                    : XDCAM EX 35
Версия формата                           : Version 2
Профиль формата                          : Main@High
Параметр BVOP формата                    : Да
Параметр матрицы формата                 : Выборочная
Параметр GOP формата                     : M=3, N=12
Идентификатор кодека                     : 61
Продолжительность                        : 18 м.
Вид битрейта                             : Переменный
Битрейт                                  : 9764 Кбит/сек
Максимальный битрейт                     : 35,0 Мбит/сек
Ширина                                   : 1280 пикселей
Высота                                   : 720 пикселей
Соотношение сторон                       : 16:9
Режим частоты кадров                     : Постоянный
Частота кадров                           : 23,976 кадра/сек
Стандарт вещания                         : Component
Цветовое пространство                    : YUV
Субдискретизация насыщенности            : 4:2:0
Битовая глубина                          : 8 бит
Тип развёртки                            : Прогрессивная
Метод сжатия                             : С потерями
Бит/(Пиксели*Кадры)                      : 0.442
Временной код первого кадра              : 00:00:00:00
Оригинал временного кода                 : Group of pictures header
Размер потока                            : 1,27 Гбайт (86%)
Язык                                     : English
Дата кодирования                         : UTC 2014-04-03 20:36:18
Дата пометки                             : UTC 2014-04-03 20:36:18
Основные цвета                           : BT.709
Характеристики трансфера                 : BT.709
Коэффициенты матрицы                     : BT.709
Аудио
Идентификатор                            : 2
Формат                                   : PCM
Параметр Endianness формата              : Big
Параметр Sign формата                    : Signed
Идентификатор кодека                     : twos
Продолжительность                        : 18 м.
Вид битрейта                             : Постоянный
Битрейт                                  : 1536 Кбит/сек
Каналы                                   : 2 канала
Частота                                  : 48,0 КГц
Битовая глубина                          : 16 бит
Размер потока                            : 205 Мбайт (14%)
Язык                                     : English
Дата кодирования                         : UTC 2014-04-03 20:36:18
Дата пометки                             : UTC 2014-04-03 20:36:18
Скриншоты:
Скачать .torrent

Для того, чтобы скачать торрент-файл

Scott Deardorff - Креативные техники художественной обработки портрета (2011)

с нашего сайта, Вам необходимо Войти на сайт под своим логином! Если у Вас ещё нет логина, тогда Вам нужно сначала Зарегистрироваться!

Как скачивать? · Что такое торрент? · Рейтинг и ограничения

Показать сообщения:    
Ответить на тему

Scott Deardorff - Креативные техники художественной обработки портрета (2011) скачать торрент (torrent), видеоуроки, тренинги, обучающее видео и видеокурсы

Текущее время: Сегодня 02:39

Часовой пояс: GMT + 4



Вы не можете начинать темы
Вы не можете отвечать на сообщения
Вы не можете редактировать свои сообщения
Вы не можете удалять свои сообщения
Вы не можете голосовать в опросах
Вы не можете прикреплять файлы к сообщениям
Вы не можете скачивать файлы