Lynda.com - Основы рисования (2013)

Ответить на тему
 
Автор Сообщение

Yulya ®

-Lynda.com - Основы рисования (2013)- Автор (режиссер): Lynda.com
Жанр: Обучающие видео-уроки
Язык: Русский
Продолжительность: 03:30:00
Качество видео: PCRec
Видеокодек: AVC
Битрейт видео: ~516 kb/s, 629 kb/s
Размер кадра: 960x540
Аудиокодек: AAC
Битрейт аудио: 61,1 kb/s, 96,0 kb/s
Доп. материалы: Есть
Описание:
Научитесь тому, как с уверенностью нарисовать любой предмет!
Основатель школы искусств, художник и профессор Уилл Кемп пройдет с вами шаг за шагом весь путь - начиная с осмотра вашего предмета и до непосредственно рисования. Он покажет вам, как с помощью линий кадрировать вашу композицию, как использовать насыщенность и оттенки для создания контраста, как применять технику negative space для определения формы, а также как установить отчетливую точку зрения для ваших рисунков в перспективе. Для успешного закрепления навыков уверенного рисования по ходу просмотра этого практического курса вы проделаете ряд упражнений.

Содержание:

Кадрирование вашей композиции
Подготовка плоскости рисунка
Использование насыщенности
Применение тонированного фона для быстрого создания ярких рисунков
Определение светлых и темных участков
Эффективное использование техники negative space
Единицы измерения для установления масштаба
Понимание углов
Создание формы при помощи света и тени

MediaInfo:

Код:
Общее
Полное имя                               : C:\Основы рисования (Foundations of Drawing, 2013)\3. Негативное пространство и простая композиция\3.1. Что такое негативное пространство.mp4
Формат                                   : MPEG-4
Профиль формата                          : Base Media
Идентификатор кодека                     : isom
Размер файла                             : 30,5 Мбайт
Продолжительность                        : 7 м. 13 с.
Режим общего битрейта                    : Переменный
Общий поток                              : 591 Кбит/сек
Дата кодирования                         : UTC 1970-01-01 00:00:00
Дата пометки                             : UTC 1970-01-01 00:00:00
Программа кодирования                    : Lavf52.94.0
Видео
Идентификатор                            : 1
Формат                                   : AVC
Формат/Информация                        : Advanced Video Codec
Профиль формата                          : [url=mailto:Main@L3.1]Main@L3.1[/url]
Параметр CABAC формата                   : Да
Параметр ReFrames формата                : 2 кадра
Идентификатор кодека                     : avc1
Идентификатор кодека/Информация          : Advanced Video Coding
Продолжительность                        : 7 м. 13 с.
Duration_FirstFrame                      : -42 мс.
Битрейт                                  : 516 Кбит/сек
Номинальный битрейт                      : 629 Кбит/сек
Ширина                                   : 960 пикселей
Высота                                   : 540 пикселей
Соотношение сторон                       : 16:9
Режим частоты кадров                     : Переменный
Частота кадров                           : 23,976 кадра/сек
Минимальная частота кадров               : 11,988 кадров/сек
Максимальная частота кадров              : 23,976 кадра/сек
Цветовое пространство                    : YUV
Субдискретизация насыщенности            : 4:2:0
Битовая глубина                          : 8 бит
Тип развёртки                            : Прогрессивная
Бит/(Пиксели*Кадры)                      : 0.042
Размер потока                            : 26,7 Мбайт (87%)
Библиотека кодирования                   : x264 core 112 r1834 a51816a
Настройки программы                      : cabac=1 / ref=1 / deblock=1:0:0 / analyse=0x1:0 / me=dia / subme=2 / psy=1 / psy_rd=0.00:0.00 / mixed_ref=0 / me_range=16 / chroma_me=1 / trellis=0 / 8x8dct=0 / cqm=0 / deadzone=21,11 / fast_pskip=1 / chroma_qp_offset=0 / threads=3 / sliced_threads=0 / nr=0 / decimate=1 / interlaced=0 / constrained_intra=0 / bframes=3 / b_pyramid=0 / b_adapt=1 / b_bias=0 / direct=3 / weightb=0 / open_gop=0 / weightp=2 / keyint=250 / keyint_min=25 / scenecut=40 / intra_refresh=0 / rc_lookahead=40 / rc=abr / mbtree=1 / bitrate=629 / ratetol=1.0 / qcomp=0.60 / qpmin=10 / qpmax=51 / qpstep=4 / ip_ratio=1.41 / aq=1:1.00
Дата кодирования                         : UTC 1970-01-01 00:00:00
Дата пометки                             : UTC 1970-01-01 00:00:00
Аудио
Идентификатор                            : 2
Формат                                   : AAC
Формат/Информация                        : Advanced Audio Codec
Профиль формата                          : LC
Идентификатор кодека                     : 40
Продолжительность                        : 7 м. 13 с.
Вид битрейта                             : Переменный
Битрейт                                  : 70,0 Кбит/сек
Каналы                                   : 2 канала
Расположение каналов                     : Front: L R
Частота                                  : 44,1 КГц
Метод сжатия                             : С потерями
Размер потока                            : 3,62 Мбайт (12%)
Дата кодирования                         : UTC 1970-01-01 00:00:00
Дата пометки                             : UTC 1970-01-01 00:00:00
Код:
Общее
Полное имя                               : C:\Основы рисования (Foundations of Drawing, 2013)\2. Свет, тень и тон\2.4. Использование тонированного фона.mp4
Формат                                   : MPEG-4
Профиль формата                          : Base Media
Идентификатор кодека                     : isom
Размер файла                             : 43,6 Мбайт
Продолжительность                        : 8 м. 19 с.
Режим общего битрейта                    : Переменный
Общий поток                              : 733 Кбит/сек
Дата кодирования                         : UTC 1970-01-01 00:00:00
Дата пометки                             : UTC 1970-01-01 00:00:00
Программа кодирования                    : Lavf52.94.0
Видео
Идентификатор                            : 1
Формат                                   : AVC
Формат/Информация                        : Advanced Video Codec
Профиль формата                          : [url=mailto:Main@L3.1]Main@L3.1[/url]
Параметр CABAC формата                   : Да
Параметр ReFrames формата                : 2 кадра
Идентификатор кодека                     : avc1
Идентификатор кодека/Информация          : Advanced Video Coding
Продолжительность                        : 8 м. 19 с.
Duration_FirstFrame                      : -42 мс.
Битрейт                                  : 629 Кбит/сек
Ширина                                   : 960 пикселей
Высота                                   : 540 пикселей
Соотношение сторон                       : 16:9
Режим частоты кадров                     : Переменный
Частота кадров                           : 23,976 кадра/сек
Минимальная частота кадров               : 11,988 кадров/сек
Максимальная частота кадров              : 23,976 кадра/сек
Цветовое пространство                    : YUV
Субдискретизация насыщенности            : 4:2:0
Битовая глубина                          : 8 бит
Тип развёртки                            : Прогрессивная
Бит/(Пиксели*Кадры)                      : 0.051
Размер потока                            : 37,6 Мбайт (86%)
Библиотека кодирования                   : x264 core 112 r1834 a51816a
Настройки программы                      : cabac=1 / ref=1 / deblock=1:0:0 / analyse=0x1:0 / me=dia / subme=2 / psy=1 / psy_rd=0.00:0.00 / mixed_ref=0 / me_range=16 / chroma_me=1 / trellis=0 / 8x8dct=0 / cqm=0 / deadzone=21,11 / fast_pskip=1 / chroma_qp_offset=0 / threads=3 / sliced_threads=0 / nr=0 / decimate=1 / interlaced=0 / constrained_intra=0 / bframes=3 / b_pyramid=0 / b_adapt=1 / b_bias=0 / direct=3 / weightb=0 / open_gop=0 / weightp=2 / keyint=250 / keyint_min=25 / scenecut=40 / intra_refresh=0 / rc_lookahead=40 / rc=abr / mbtree=1 / bitrate=629 / ratetol=1.0 / qcomp=0.60 / qpmin=10 / qpmax=51 / qpstep=4 / ip_ratio=1.41 / aq=1:1.00
Дата кодирования                         : UTC 1970-01-01 00:00:00
Дата пометки                             : UTC 1970-01-01 00:00:00
Аудио
Идентификатор                            : 2
Формат                                   : AAC
Формат/Информация                        : Advanced Audio Codec
Профиль формата                          : LC
Идентификатор кодека                     : 40
Продолжительность                        : 8 м. 19 с.
Вид битрейта                             : Переменный
Битрейт                                  : 96,0 Кбит/сек
Каналы                                   : 2 канала
Расположение каналов                     : Front: L R
Частота                                  : 44,1 КГц
Метод сжатия                             : С потерями
Размер потока                            : 5,70 Мбайт (13%)
Дата кодирования                         : UTC 1970-01-01 00:00:00
Дата пометки                             : UTC 1970-01-01 00:00:00
Скриншоты:
Скачать .torrent

Для того, чтобы скачать торрент-файл

Lynda.com - Основы рисования (2013)

с нашего сайта, Вам необходимо Войти на сайт под своим логином! Если у Вас ещё нет логина, тогда Вам нужно сначала Зарегистрироваться!

Как скачивать? · Что такое торрент? · Рейтинг и ограничения

Показать сообщения:    
Ответить на тему

Lynda.com - Основы рисования (2013) скачать торрент (torrent), видеоуроки, тренинги, обучающее видео и видеокурсы

Текущее время: Сегодня 07:40

Часовой пояс: GMT + 4



Вы не можете начинать темы
Вы не можете отвечать на сообщения
Вы не можете редактировать свои сообщения
Вы не можете удалять свои сообщения
Вы не можете голосовать в опросах
Вы не можете прикреплять файлы к сообщениям
Вы не можете скачивать файлы