Lynda.com - Photoshop CC. Один-на-Один. Средний уровень (2013)

Ответить на тему
 
Автор Сообщение

Yulya ®

-Lynda.com - Photoshop CC. Один-на-Один. Средний уровень (2013)- Автор (режиссер): Lynda.com
Жанр: Обучающие видео-уроки
Язык: Русский
Продолжительность: 09:52:19
Качество видео: PCRec
Видеокодек: AVC
Битрейт видео: ~59,4 kb/s, 2021 kb/s
Размер кадра: 640x360, 960x540
Аудиокодек: MP3
Битрейт аудио: 128 kb/s, 256 kb/s, 2 Ch
Доп. материалы: Есть
Описание:
Photoshop CC Один-на-один вернулся! И этот курс научит вас, как улучшить ваши начальные знания и постичь эффекты более высокого уровня с этим лучшим в мире редактором изображений.
Мастерская Дик МакКлелланда покажет вам, как плавно и бесшовно передвигать части фотографии и делать заплатки с помощью комплекта инструментов Content-Aware; увеличивать диапазон яркости сцены с автоматическими и ручными настройками уровней; создавать навороченный дизайн с помощью фигур и текстовых слоёв; а также преобразовывать изображения с помощью стилей слоя и трансформаций.
Дик также поделится собственными техниками увеличения резкости изображений, имеющих шумы в области света/тени или изображений, имеющих проблемы из-за тряски камеры. Также Дик покажет, как преобразовать полностью цветное изображение в чёрно-белое.
Последние главы расскажут вам о том, как лучше всего печатать и сохранять для Веб ваши изображения, будучи уверенными, что вся проделанная вами работа окупится в конечном итоге.

Содержание:

Выполнение автоматической ретуши, масштабирования и много другого с помощью инструментов Content-Aware
Настройка Гистограммы
Настройка уровней
Редактирование уровней по каналам
Увеличение резкости с помощью Умной резкости, фильтра тиснения и High pass фильтра
Работа с векторами
Кёрнинг и Трекинг текста
Создание текста на векторном контуре
Рисование и настройка фигур
Создание глубины, контуров и текстур с помощью стилей слоя
Работа с Liquify
Симуляция инфракрасной фотографии
Настройка позиции печати, размера и цвета
Создание идеального JPEG изображения
Сжатие изображений для Веб

Об авторе:

Дик МакКлелланд (Deke McClelland) - один из наиболее уважаемых экспертов отрасли по продуктам Adobe. Он пишет книги, статьи и создает обучающие видео по программам Photoshop, Illustrator и InDesign с момента их появления на рынке. Диком написано более 80 книг, переведенных на 24 языка, записано около 2000 часов обучающих видео. Его книги становятся бестселлерами, а видео набирают миллионы просмотров.

MediaInfo:

Код:
Общее
Полное имя                               : C:\Lynda.com - Photoshop CC. Один-на-Один. Средний уровень - 2013\15. Создание и рисование фигур\06. Объединение простых фигур для создания более сложных.mp4
Формат                                   : MPEG-4
Профиль формата                          : Base Media
Идентификатор кодека                     : isom
Размер файла                             : 13,6 Мбайт
Продолжительность                        : 5 м. 59 с.
Общий поток                              : 317 Кбит/сек
Дата кодирования                         : UTC 2014-05-14 17:48:10
Дата пометки                             : UTC 2014-05-14 17:48:10
Видео
Идентификатор                            : 1
Формат                                   : AVC
Формат/Информация                        : Advanced Video Codec
Профиль формата                          : [url=mailto:Baseline@L3.1]Baseline@L3.1[/url]
Параметр CABAC формата                   : Нет
Параметр ReFrames формата                : 3 кадра
Идентификатор кодека                     : avc1
Идентификатор кодека/Информация          : Advanced Video Coding
Продолжительность                        : 5 м. 59 с.
Битрейт                                  : 59,4 Кбит/сек
Максимальный битрейт                     : 567 Кбит/сек
Ширина                                   : 640 пикселей
Высота                                   : 360 пикселей
Соотношение сторон                       : 16:9
Режим частоты кадров                     : Постоянный
Частота кадров                           : 15,000 кадров/сек
Цветовое пространство                    : YUV
Субдискретизация насыщенности            : 4:2:0
Битовая глубина                          : 8 бит
Тип развёртки                            : Прогрессивная
Бит/(Пиксели*Кадры)                      : 0.017
Размер потока                            : 2,55 Мбайт (19%)
Библиотека кодирования                   : x264 core 119 r2106 07efeb4
Настройки программы                      : cabac=0 / ref=3 / deblock=1:0:0 / analyse=0x1:0x111 / me=hex / subme=7 / psy=1 / psy_rd=1.00:0.00 / mixed_ref=1 / me_range=16 / chroma_me=1 / trellis=1 / 8x8dct=0 / cqm=0 / deadzone=21,11 / fast_pskip=1 / chroma_qp_offset=-2 / threads=3 / sliced_threads=0 / nr=0 / decimate=1 / interlaced=0 / bluray_compat=0 / constrained_intra=0 / bframes=0 / weightp=0 / keyint=250 / keyint_min=15 / scenecut=40 / intra_refresh=0 / rc=cqp / mbtree=0 / qp=20 / ip_ratio=1.40 / aq=0
Дата кодирования                         : UTC 2014-05-15 17:46:54
Дата пометки                             : UTC 2014-05-14 17:48:10
Аудио
Идентификатор                            : 2
Формат                                   : MPEG Audio
Версия формата                           : Version 1
Профиль формата                          : Layer 3
Режим                                    : Joint stereo
Расширение режима                        : MS Stereo
Идентификатор кодека                     : 6B
Продолжительность                        : 5 м. 59 с.
Вид битрейта                             : Постоянный
Битрейт                                  : 256 Кбит/сек
Максимальный битрейт                     : 267 Кбит/сек
Каналы                                   : 2 канала
Частота                                  : 44,1 КГц
Метод сжатия                             : С потерями
Размер потока                            : 11,0 Мбайт (81%)
Дата кодирования                         : UTC 2014-05-14 17:48:10
Дата пометки                             : UTC 2014-05-14 17:48:10
Код:
Общее
Полное имя                               : C:\Lynda.com - Photoshop CC. Один-на-Один. Средний уровень - 2013\20. Конвертация в Черно-Белое\01. Конвертация цветного снимка в черно-белую картинку.mp4
Формат                                   : MPEG-4
Профиль формата                          : Base Media
Идентификатор кодека                     : isom
Размер файла                             : 31,5 Мбайт
Продолжительность                        : 1 м. 55 с.
Общий поток                              : 2279 Кбит/сек
Дата кодирования                         : UTC 2014-05-18 10:59:14
Дата пометки                             : UTC 2014-05-18 10:59:14
Видео
Идентификатор                            : 1
Формат                                   : AVC
Формат/Информация                        : Advanced Video Codec
Профиль формата                          : [url=mailto:Baseline@L3.1]Baseline@L3.1[/url]
Параметр CABAC формата                   : Нет
Параметр ReFrames формата                : 3 кадра
Идентификатор кодека                     : avc1
Идентификатор кодека/Информация          : Advanced Video Coding
Продолжительность                        : 1 м. 55 с.
Битрейт                                  : 2021 Кбит/сек
Максимальный битрейт                     : 15,8 Мбит/сек
Ширина                                   : 960 пикселей
Высота                                   : 540 пикселей
Соотношение сторон                       : 16:9
Режим частоты кадров                     : Постоянный
Частота кадров                           : 29,970 кадров/сек
Цветовое пространство                    : YUV
Субдискретизация насыщенности            : 4:2:0
Битовая глубина                          : 8 бит
Тип развёртки                            : Прогрессивная
Бит/(Пиксели*Кадры)                      : 0.130
Размер потока                            : 27,9 Мбайт (89%)
Библиотека кодирования                   : x264 core 119 r2106 07efeb4
Настройки программы                      : cabac=0 / ref=3 / deblock=1:0:0 / analyse=0x1:0x111 / me=hex / subme=7 / psy=1 / psy_rd=1.00:0.00 / mixed_ref=1 / me_range=16 / chroma_me=1 / trellis=1 / 8x8dct=0 / cqm=0 / deadzone=21,11 / fast_pskip=1 / chroma_qp_offset=-2 / threads=3 / sliced_threads=0 / nr=0 / decimate=1 / interlaced=0 / bluray_compat=0 / constrained_intra=0 / bframes=0 / weightp=0 / keyint=250 / keyint_min=25 / scenecut=40 / intra_refresh=0 / rc=cqp / mbtree=0 / qp=20 / ip_ratio=1.40 / aq=0
Дата кодирования                         : UTC 2014-05-19 08:01:12
Дата пометки                             : UTC 2014-05-18 10:59:16
Аудио
Идентификатор                            : 2
Формат                                   : MPEG Audio
Версия формата                           : Version 1
Профиль формата                          : Layer 3
Режим                                    : Joint stereo
Расширение режима                        : MS Stereo
Идентификатор кодека                     : 6B
Продолжительность                        : 1 м. 55 с.
Вид битрейта                             : Постоянный
Битрейт                                  : 256 Кбит/сек
Максимальный битрейт                     : 267 Кбит/сек
Каналы                                   : 2 канала
Частота                                  : 44,1 КГц
Метод сжатия                             : С потерями
Размер потока                            : 3,54 Мбайт (11%)
Дата кодирования                         : UTC 2014-05-18 10:59:16
Дата пометки                             : UTC 2014-05-18 10:59:16
Скриншоты:
Скачать .torrent

Для того, чтобы скачать торрент-файл

Lynda.com - Photoshop CC. Один-на-Один. Средний уровень (2013)

с нашего сайта, Вам необходимо Войти на сайт под своим логином! Если у Вас ещё нет логина, тогда Вам нужно сначала Зарегистрироваться!

Как скачивать? · Что такое торрент? · Рейтинг и ограничения

Показать сообщения:    
Ответить на тему

Lynda.com - Photoshop CC. Один-на-Один. Средний уровень (2013) скачать торрент (torrent), видеоуроки, тренинги, обучающее видео и видеокурсы

Текущее время: Сегодня 06:44

Часовой пояс: GMT + 4



Вы не можете начинать темы
Вы не можете отвечать на сообщения
Вы не можете редактировать свои сообщения
Вы не можете удалять свои сообщения
Вы не можете голосовать в опросах
Вы не можете прикреплять файлы к сообщениям
Вы не можете скачивать файлы