Последнее из V.I.P.-раздела

19-Ноя-19 06:59
19-Ноя-19 06:58
19-Ноя-19 06:54
19-Ноя-19 06:49
19-Ноя-19 06:47
19-Ноя-19 06:46
19-Ноя-19 06:37
19-Ноя-19 06:35
19-Ноя-19 06:30
19-Ноя-19 06:25

Андрей Журавлев - Мастер-класс — Lab. Что это такое и как в нем работать (2014)

Ответить на тему
 
Автор Сообщение

Yulya ®

-Андрей Журавлев - Мастер-класс — Lab. Что это такое и как в нем работать (2014)- Автор (режиссер): Андрей Журавлев
Жанр: Обучающие видео-уроки
Продолжительность: 03:40:53
Качество видео: PCRec
Видеокодек: AVC
Битрейт видео: ~636 kb/s
Размер кадра: 1116x678
Аудиокодек: AAC
Битрейт аудио: 52,6 kb/s, 2 Ch
Доп. материалы: Есть
Описание:
За два часа невозможно рассказать обо всех тонкостях и приемах работы. Но устройство и базовые принципы работы с основными инструментами, плюсы и минусы работы в Lab мы рассмотрим. Это послужит неплохой стартовой площадкой, для самостоятельного развития.

Программа Мастер-класса:

Где можно встретить Lab в повседневной жизни.
Устройство Lab и содержимое цветоразностных каналов.
Особенности работы с кривыми (Curves).
Режимы наложения (Blending Modes) в Lab.
Сильные и слабые сторона Lab.
Объединение коррекций в RGB и Lab.
Lab в палитре Info.
Оценка цвета кожи при помощи Lab.

Об авторе:

Андрей Журавлев – один из лучших специалистов России по цветокоррекции и допечатной подготовке. Его глубокие знания в Adobe Photoshop, удивительное умение объяснить сложные вещи простым и понятным языком создали для Андрея уникальные преимущества. "Замечательный преподаватель", "Настоящий профессионал" и даже "Маргулис всея Руси" – это одни из многих ярких эпитетов наших учащихся с которыми они остаются после обучения у Андрея. Учащиеся ценят его умение показать проблему под новым ракурсом, и затем разложить ее решение, сдабривая рассказ искромётным юмором. А ведь смех, как ничто иное, снимает напряжение от длительной умственной работы и способствует лучшему восприятию обширного материала.

MediaInfo:

Код:
Общее
Полное имя                               : C:\Андрей Журавлев - Lab. Что это такое и как в нем работать - 2014\Видео.mp4
Формат                                   : MPEG-4
Профиль формата                          : Base Media / Version 2
Идентификатор кодека                     : mp42
Размер файла                             : 1,07 Гбайт
Продолжительность                        : 3 ч. 40 м.
Общий поток                              : 691 Кбит/сек
Дата кодирования                         : UTC 2014-04-04 17:06:35
Дата пометки                             : UTC 2014-04-04 17:06:35
Видео
Идентификатор                            : 1
Формат                                   : AVC
Формат/Информация                        : Advanced Video Codec
Профиль формата                          : [url=mailto:High@L4.0]High@L4.0[/url]
Параметр CABAC формата                   : Да
Параметр ReFrames формата                : 4 кадра
Идентификатор кодека                     : avc1
Идентификатор кодека/Информация          : Advanced Video Coding
Продолжительность                        : 3 ч. 40 м.
Продолжительность оригинала              : 3 ч. 40 м.
Битрейт                                  : 636 Кбит/сек
Ширина                                   : 1116 пикселей
Высота                                   : 678 пикселей
Соотношение сторон                       : 16:10
Режим частоты кадров                     : Постоянный
Частота кадров                           : 15,000 кадров/сек
Цветовое пространство                    : YUV
Субдискретизация насыщенности            : 4:2:0
Битовая глубина                          : 8 бит
Тип развёртки                            : Прогрессивная
Бит/(Пиксели*Кадры)                      : 0.056
Размер потока                            : 1004 Мбайт (92%)
Размер потока оригинала                  : 1004 Мбайт (92%)
Язык                                     : English
Дата кодирования                         : UTC 2014-04-04 17:06:35
Дата пометки                             : UTC 2014-04-04 17:06:35
Основные цвета                           : BT.709
Характеристики трансфера                 : BT.709
Коэффициенты матрицы                     : BT.709
mdhd_Duration                            : 13246972
Аудио
Идентификатор                            : 2
Формат                                   : AAC
Формат/Информация                        : Advanced Audio Codec
Профиль формата                          : LC
Идентификатор кодека                     : 40
Продолжительность                        : 3 ч. 40 м.
Продолжительность оригинала              : 3 ч. 40 м.
Вид битрейта                             : Постоянный
Битрейт                                  : 52,6 Кбит/сек
Каналы                                   : 2 канала
Расположение каналов                     : Front: L R
Частота                                  : 44,1 КГц
Метод сжатия                             : С потерями
Размер потока                            : 83,6 Мбайт (8%)
Размер потока оригинала                  : 83,6 Мбайт (8%)
Язык                                     : English
Дата кодирования                         : UTC 2014-04-04 17:06:35
Дата пометки                             : UTC 2014-04-04 17:06:35
mdhd_Duration                            : 13335376
Скриншоты:
Скачать .torrent

Для того, чтобы скачать торрент-файл

Андрей Журавлев - Мастер-класс — Lab. Что это такое и как в нем работать (2014)

с нашего сайта, Вам необходимо Войти на сайт под своим логином! Если у Вас ещё нет логина, тогда Вам нужно сначала Зарегистрироваться!

Как скачивать? · Что такое торрент? · Рейтинг и ограничения

Yerzhan

Спасибо автору за релиз!

romgen

Спасибо! Круто!
Показать сообщения:    
Ответить на тему

Андрей Журавлев - Мастер-класс — Lab. Что это такое и как в нем работать (2014) скачать торрент (torrent), видеоуроки, тренинги, обучающее видео и видеокурсы

Текущее время: Сегодня 11:57

Часовой пояс: GMT + 4



Вы не можете начинать темы
Вы не можете отвечать на сообщения
Вы не можете редактировать свои сообщения
Вы не можете удалять свои сообщения
Вы не можете голосовать в опросах
Вы не можете прикреплять файлы к сообщениям
Вы не можете скачивать файлы