Последнее из V.I.P.-раздела

05-Авг
05-Авг
05-Авг
05-Авг
05-Авг
05-Авг
05-Авг
05-Авг
05-Авг
05-Авг
05-Авг
05-Авг
05-Авг
05-Авг
05-Авг
05-Авг
05-Авг
05-Авг
05-Авг
05-Авг

Новости о коронавирусе

Специалист - Drupal. Уровень 1. Администрирование и создание сайтов (2012)

Ответить на тему
 
Автор Сообщение

Yulya ®

-Специалист - Drupal. Уровень 1. Администрирование и создание сайтов (2012)- Автор (режиссер): Специалист
Жанр: Обучающие видео-уроки
Продолжительность: 11:18:15
Качество видео: PCRec
Видеокодек: AVC
Битрейт видео: ~112 kbps
Размер кадра: 1280x1026
Аудиокодек: MP3
Битрейт аудио: 256 kbps, 2 Ch
Доп. материалы: Есть
Описание:
По окончании курса Вы будете уметь:
Устанавливать локальный сервер и развертывать на нём платформу Drupal
Собирать сайт, используя различные модули
Выбирать и устанавливать тему, наиболее подходящую для тематики сайта
Получать именно ту функциональность, которая Вам нужна, не прибегая к написанию кода
Устанавливать и использовать любой модуль для Drupal
Общаться с другими разработчиками со знанием терминологии и имея чёткое представление об архитектуре CMF Drupal
По окончании этого модуля слушатели смогут:
Создать сайт. От идеи и заканчивая готовым проектом
Описать принцип работы данного фреймворка
Использовать Drupal в своих собственных проектах

Программа курса:

Модуль 1. Установка Drupal. Изучение архитектуры системы. Основы построения сайта.
Обзор CMF Drupal.
Установка сервера.
Установка CMF Drupal.
Локализация системы.
Знакомство с админкой.
Понятие ноды, таксономии, меню и модуля для Drupal.
Типы материалов в Drupal, комментарии.
Установка и удаление модулей. Создание нод и словарей.
Работа с модулями, создание материалов.
Лабораторные работы: Установка веб-сервера для работы с Drupal. Установка фреймворка и знакомство с ним.
Упражнение 1: Установка сервера.
Упражнение 2: Установка CMF Drupal.
Упражнение 3: Локализация сайта и знакомство с админкой.
Упражнение 4: Установка и удаление модулей, создание материалов.
Упражнение 5: Создание меню для сайта.
Упражнение 6: Работа с таксономией.
Модуль 2. Модули в Drupal. Оформление и темизация.
Установка и настройка тем оформления, тема админки.
Настройки производительности.
Модули Views, CCK и ImageCache.
Блоки и регионы в Drupal.
Лабораторные работы: Темизация сайта, заполнение контентом. Создание представлений.
Упражнение 1: Установка и настройка тем оформления на сайт.
Упражнение 2: Настройка производительности, включение кэширования в CMF Drupal.
Упражнение 3: Настройка материалов, расширение стандартных типов материалов.
Упражнение 4: Работа с модулем Views. Размещение представлений в блоках.
Модуль 3. Установка и работа с самыми необходимыми модулями.
Изучение модулей Path, Path Auto, File Paths, Token, Transliteration и Global Redirect.
Установка WYSIWYG редактора. Модуль Web Form.
Лабораторные работы: Создание ЧПУ. Работа с представлениями и формами.
Упражнение 1: Создание ЧПУ на сайте.
Упражнение 2: Подключение транслитерации.
Упражнение 3: Визуальный редактор и модуль Web Form.
Модуль 4. Настройки безопасности, работа с пользователями.
Управление пользователями. Распределение ролей и прав.
Модули Fancy Login и Poll.
Лабораторные работы: Работа с пользователями
Упражнение 1: Раздача прав и ролей пользователям.
Упражнение 2: Установка модуля Fancy Login.
Упражнение 3: Работа с модулем Poll, создание опросов на сайте.
Модуль 5. Способы ручной верстки и шаблонизации в CMF Drupal.
Понятие шаблонов, возможность их переопределения CMF Drupal.
Лабораторные работы: Шаблоны в Drupal.
Упражнение 1: Ручная темизация Views.
Упражнение 2: Правка и создание шаблонов тем.

MediaInfo:

Код:
Общее
Полное имя                               : C:\Drupal - Administration and creation of sites\drupal.mov
Формат                                   : QuickTime
Формат/Информация                        : Original Apple specifications
Размер файла                             : 1017 Мбайт
Продолжительность                        : 11 ч.
Общий поток                              : 210 Кбит/сек
Дата кодирования                         : UTC 2012-10-19 17:35:14
Дата пометки                             : UTC 2012-10-19 17:35:14
Библиотека кодирования                   : AVS
Видео
Идентификатор                            : 1
Формат                                   : AVC
Формат/Информация                        : Advanced Video Codec
Профиль формата                          : [url=mailto:Main@L3.0]Main@L3.0[/url]
Параметр CABAC формата                   : Да
Параметр ReFrames формата                : 2 кадра
Идентификатор кодека                     : avc1
Идентификатор кодека/Информация          : Advanced Video Coding
Продолжительность                        : 11 ч.
Битрейт                                  : 112 Кбит/сек
Ширина                                   : 1280 пикселей
Высота                                   : 1026 пикселей
Соотношение сторон                       : 5:4
Режим частоты кадров                     : Постоянный
Частота кадров                           : 10,000 кадров/сек
Цветовое пространство                    : YUV
Субдискретизация насыщенности            : 4:2:0
Битовая глубина                          : 8 бит
Тип развёртки                            : Прогрессивная
Бит/(Пиксели*Кадры)                      : 0.009
Размер потока                            : 545 Мбайт (54%)
Язык                                     : English
Дата кодирования                         : UTC 2012-10-19 17:35:14
Дата пометки                             : UTC 2012-10-19 17:35:14
Основные цвета                           : BT.709
Характеристики трансфера                 : BT.709
Коэффициенты матрицы                     : BT.709
Аудио
Идентификатор                            : 2
Формат                                   : MPEG Audio
Идентификатор кодека                     : 55
Идентификатор кодека/Подсказка           : MP3
Продолжительность                        : 11 ч.
Вид битрейта                             : Постоянный
Битрейт                                  : 256 Кбит/сек
Номинальный битрейт                      : 96,0 Кбит/сек
Каналы                                   : 2 канала
Частота                                  : 32,0 КГц
Метод сжатия                             : С потерями
Размер потока                            : 1,21 Гбайт
Язык                                     : English
Дата кодирования                         : UTC 2012-10-19 17:35:15
Дата пометки                             : UTC 2012-10-19 17:35:15
Скриншоты:
Скачать .torrent

Для того, чтобы скачать торрент-файл

Специалист - Drupal. Уровень 1. Администрирование и создание сайтов (2012)

с нашего сайта, Вам необходимо Войти на сайт под своим логином! Если у Вас ещё нет логина, тогда Вам нужно сначала Зарегистрироваться!

Как скачивать? · Что такое торрент? · Рейтинг и ограничения

Показать сообщения:    
Ответить на тему

Специалист - Drupal. Уровень 1. Администрирование и создание сайтов (2012) скачать торрент (torrent), видеоуроки, тренинги, обучающее видео и видеокурсы

Текущее время: Сегодня 12:30

Часовой пояс: GMT + 4



Вы не можете начинать темы
Вы не можете отвечать на сообщения
Вы не можете редактировать свои сообщения
Вы не можете удалять свои сообщения
Вы не можете голосовать в опросах
Вы не можете прикреплять файлы к сообщениям
Вы не можете скачивать файлы